img image001 image001 image001 image001 image001 image001 image001 image001 image001 image001 image001 image001 image001 image001 image001

Planets Sun Sun Sun
Статистика раздачи
Автор: Nickolas3434 | Размер: 3.94 ГБ | Добавлен: 23 мар 2015
Раздают: 22    Качают: 2
Скачать торрент
Скачать торрент
Описание торрента

СообщениеДобавлено: 23 мар 2015 

Кубок Мира 2014-15. 9-й этап. Ханты-Мансийск (Россия)
Женщины. Гонка преследования 10 км
Вид спорта: Биатлон
Комментарий: Профессиональный
Язык комментариев: Русский (Губерниев)
Описание: Кубок Мира 2014-15. 9-й этап. Ханты-Мансийск (Россия). Женщины. Гонка преследования 10 км.
Автор рипа: sanchez2011
Качество: HDTV
Формат: TS
Видео кодек: AVC
Аудио кодек: MP2
Видео: MPEG4 Video (H264) 1920x1080 (16:9) 25fps 10700kbps
Аудио: MPEG Audio 48000Hz stereo 192kbp
Скриншоты
Продолжительность: 00:49:04
General
ID : 1 (0x1)
Complete name : H:раздачиКубок Мира 2014-15. 9-й этап. Ханты-Мансийск (Россия). Женщины. Гонка преследования 10 км. Спорт 1.ts
Format : MPEG-TS
File size : 3.94 GiB
Duration : 49mn 4s
Overall bit rate mode : Variable
Overall bit rate : 11.5 Mbps
Video
ID : 303 (0x12F)
Menu ID : 20103 (0x4E87)
Format : AVC
Format/Info : Advanced Video Codec
Format profile : High@L4.0
Format settings, CABAC : Yes
Format settings, ReFrames : 4 frames
Codec ID : 27
Duration : 49mn 4s
Bit rate : 10.7 Mbps
Width : 1 920 pixels
Height : 1 080 pixels
Display aspect ratio : 16:9
Frame rate : 25.000 fps
Standard : Component
Color space : YUV
Chroma subsampling : 4:2:0
Bit depth : 8 bits
Scan type : Interlaced
Scan order : Top Field First
Bits/(Pixel*Frame) : 0.207
Stream size : 3.68 GiB (93%)
Color primaries : BT.709
Transfer characteristics : BT.709
Matrix coefficients : BT.709
Color range : Limited
Audio
ID : 403 (0x193)
Menu ID : 20103 (0x4E87)
Format : MPEG Audio
Format version : Version 1
Format profile : Layer 2
Codec ID : 3
Duration : 49mn 4s
Bit rate mode : Constant
Bit rate : 192 Kbps
Channel(s) : 2 channels
Sampling rate : 48.0 KHz
Compression mode : Lossy
Delay relative to video : -40ms
Stream size : 67.4 MiB (2%)
Language : Russian



   Похожие торренты   Торрент   Размер 
В этой теме нет новых непрочитанных сообщений. Биатлон. Кубок Мира 2014-15. 9-й этап. Ханты-Мансийск. Женщины. Гонка преследования 10 км [21.03] (2015) HDTVRip

25 | 2

645.81 МБ

В этой теме нет новых непрочитанных сообщений. Биатлон. Кубок Мира 2014-15. 9-й этап. Ханты-Мансийск. Женщины. Гонка преследования 10 км [21.03] (2015) HDTVRip 720p | 50 fps

68 | 3

1.44 ГБ

В этой теме нет новых непрочитанных сообщений. Биатлон. Кубок Мира 2014-15. 9-й этап. Ханты-Мансийск. Женщины. Гонка преследования 10 км [21.03] (2015) HDTVRip 720р

53 | 4

1.29 ГБ

В этой теме нет новых непрочитанных сообщений. Биатлон. Кубок Мира 2014-15. 9-й этап. Ханты-Мансийск. Мужчины. Гонка преследования 12,5 км [21.03] (2015) HDTVRip

47 | 3

911.82 МБ

В этой теме нет новых непрочитанных сообщений. Биатлон. Кубок Мира 2014-15. 9-й этап. Ханты-Мансийск. Мужчины. Гонка преследования 12,5 км [21.03] (2015) HDTVRip 720p | 50 fps

2 | 2

1.75 ГБ

В этой теме нет новых непрочитанных сообщений. Биатлон. Кубок Мира 2014-15. 9-й этап. Ханты-Мансийск. Мужчины. Гонка преследования 12,5 км [21.03] (2015) HDTV 1080i

7 | 3

4.93 ГБ

В этой теме нет новых непрочитанных сообщений. Биатлон. Кубок Мира 2011-12. 9-й этап. Ханты-Мансийск (Россия). Мужчины. Гонка преследования 12.5км (2012) SATRip

0 | 1

666.84 МБ




Вы не можете начинать темы
Вы не можете отвечать на сообщения
Вы не можете редактировать свои сообщения
Вы не можете удалять свои сообщения
Вы не можете добавлять вложения

Перейти:  
Для Мосгорсуда, Роскомнадзора и рекламодателей: mosgorsud-torrent[собачка]yandex.ru
 Вход
ppkBB3cker v.2 © 2008-2014 @ PPK
[ Time : 0.026s | 15 Queries | GZIP : Off ]

Торрент трекер RUTOR.IN, Не можете зайти на rutor.org? Какой новый адрес рутор? Какое зеркало рутор? Не работает rutor.org и зеркала? Тогда наш торрент специально для вас. Rutor.in неофициальное зеркало rutor. В случае если у Вас заблокирован rutor или вдруг Вы не можете на него зайти, то Вы без труда сможете скачать бесплатно и без рекламы последние новинки кино, игр, сериалов и прочего у нас, на Rutor.in. Не нужно использовать прокси, чтобы зайти на рутор, достаточно воспользоваться нашим ресурсом. Все новые фильмы, игры, сериалы, книги и музыка за 2013 и 2014 годы через торрент бесплатно. Скачивайте фильмы в хорошем качестве, игры для пк, xbox, playstation без регистрации. У нас вы найдете новые Зарубежные сериалы и Русские сериалы 2013, 2014, 2015 годов. Оставайтесь с нами, качайте любимые фильмы, игры, сериалы, книги и музыку.