img image001 image001 image001 image001 image001 image001 image001 image001 image001 image001 image001 image001 image001 image001 image001

Planets Sun Sun Sun
Статистика раздачи
Автор: Nickolas3434 | Размер: 8.44 ГБ | Добавлен: 25 мар 2015
Раздают: 40    Качают: 3
Скачать торрент
Скачать торрент
Описание торрента

СообщениеДобавлено: 25 мар 2015 


Вид спорта: Футбол
Год выпуска: 22.03.2015
Язык комментариев: (В.Уткин)
Участники: Барселона - Реал Мадрид
Описание: 22 марта 2015, воскресенье. 23:00 МСК
28-й тур
Стадион: Камп Ноу (Барселона, Испания) , вместимость: 99354
Главный судья: Матеу Лаос (Валенсия, Испания)
Автор рипа.записи: Mr/ Drax
Качество: HDTV
Продолжительность: 01:44:44
Формат: TS
Видео кодек: H.264
Аудио кодек: MP2
Свойства видео: 1920x1080, 25,000 кадров/сек, 10.8 Mbps
Свойства аудио: 48,0 КГц, 2ch stereo, 192 Кбит/сек

2-1
Полное имя : H:FootballSpainLa Liga.28 day. Barcelona vs. Real.Madrid. HDTV 1080i. 22.03.2015.ts
Формат : MPEG-TS
Размер файла : 8,44 Гбайт
Продолжительность : 1 ч. 44 м.
Режим общего битрейта : Переменный
Общий поток : 11,5 Мбит/сек
Видео
Идентификатор : 325 (0x145)
Идентификатор меню : 14105 (0x3719)
Формат : AVC
Формат/Информация : Advanced Video Codec
Профиль формата : High@L4.0
Параметр CABAC формата : Да
Параметр ReFrames формата : 4 кадра
Идентификатор кодека : 27
Продолжительность : 1 ч. 44 м.
Битрейт : 10,8 Мбит/сек
Ширина : 1920 пикселей
Высота : 1080 пикселей
Соотношение сторон : 16:9
Частота кадров : 25,000 кадров/сек
Стандарт вещания : Component
Цветовое пространство : YUV
Субдискретизация насыщенности : 4:2:0
Битовая глубина : 8 бит
Тип развёртки : Чересстрочная
Порядок развёртки : Верхнее поле первое
Бит/(Пиксели*Кадры) : 0.208
Размер потока : 7,88 Гбайт (93%)
Основные цвета : BT.709
Характеристики трансфера : BT.709
Коэффициенты матрицы : BT.709
colour_range : Limited
Аудио
Идентификатор : 405 (0x195)
Идентификатор меню : 14105 (0x3719)
Формат : MPEG Audio
Версия формата : Version 1
Профиль формата : Layer 2
Идентификатор кодека : 3
Продолжительность : 1 ч. 44 м.
Вид битрейта : Постоянный
Битрейт : 192 Кбит/сек
Каналы : 2 канала
Частота : 48,0 КГц
Метод сжатия : С потерями
Размер потока : 144 Мбайт (2%)
Язык : Russian



   Похожие торренты   Торрент   Размер 
В этой теме нет новых непрочитанных сообщений. Футбол. Чемпионат Испании 2014-15. 28-й тур. Эль Класико. Барселона - Реал [22.03] (2015) HDTV 1080i

20 | 3

8.33 ГБ

В этой теме нет новых непрочитанных сообщений. Футбол. Чемпионат Испании 2014-15. 28-й тур. Эль Класико. Барселона - Реал [22.03] (2015) HDTV 1080i

8 | 2

4.08 ГБ

В этой теме нет новых непрочитанных сообщений. Футбол. Чемпионат Испании 2013-14. 29-й тур. Реал Мадрид - Барселона [23.03] (2014) HDTV 1080i

241 | 77

10.28 ГБ

В этой теме нет новых непрочитанных сообщений. Футбол. Чемпионат Испании 2014-15. 28-й тур. Эль Класико. Барселона - Реал [22.03] (2015) HDTVRip | 50 fps

39 | 3

1.3 ГБ

В этой теме нет новых непрочитанных сообщений. Футбол. Чемпионат Испании 2014-15. 28-й тур. Эль Класико. Барселона - Реал [22.03] (2015) WEB-DL 720p

87 | 7

1.81 ГБ

В этой теме нет новых непрочитанных сообщений. Футбол. Чемпионат Испании 2015-2016. 12-й тур. Реал Мадрид — Барселона [21.11] (2015) HDTV 1080i

106 | 8

8.91 ГБ

В этой теме нет новых непрочитанных сообщений. Футбол. Чемпионат Испании 2014-15. 28-й тур. Эль Класико. Барселона - Реал [22.03] (2015) HDTVRip 720p | 50 fps

219 | 11

3.07 ГБ




Вы не можете начинать темы
Вы не можете отвечать на сообщения
Вы не можете редактировать свои сообщения
Вы не можете удалять свои сообщения
Вы не можете добавлять вложения

Перейти:  
Для Мосгорсуда, Роскомнадзора и рекламодателей: mosgorsud-torrent[собачка]yandex.ru
 Вход
ppkBB3cker v.2 © 2008-2014 @ PPK
[ Time : 0.779s | 15 Queries | GZIP : Off ]

Торрент трекер RUTOR.IN, Не можете зайти на rutor.org? Какой новый адрес рутор? Какое зеркало рутор? Не работает rutor.org и зеркала? Тогда наш торрент специально для вас. Rutor.in неофициальное зеркало rutor. В случае если у Вас заблокирован rutor или вдруг Вы не можете на него зайти, то Вы без труда сможете скачать бесплатно и без рекламы последние новинки кино, игр, сериалов и прочего у нас, на Rutor.in. Не нужно использовать прокси, чтобы зайти на рутор, достаточно воспользоваться нашим ресурсом. Все новые фильмы, игры, сериалы, книги и музыка за 2013 и 2014 годы через торрент бесплатно. Скачивайте фильмы в хорошем качестве, игры для пк, xbox, playstation без регистрации. У нас вы найдете новые Зарубежные сериалы и Русские сериалы 2013, 2014, 2015 годов. Оставайтесь с нами, качайте любимые фильмы, игры, сериалы, книги и музыку.