img image001 image001 image001 image001 image001 image001 image001 image001 image001 image001 image001 image001 image001 image001 image001

Planets Sun Sun Sun
Статистика раздачи
Автор: Nickolas3434 | Размер: 29 ГБ | Добавлен: 29 мар 2015
Раздают: 3    Качают: 7
Скачать торрент
Скачать торрент
Описание торрента

СообщениеДобавлено: 29 мар 2015 

Формула 1. Сезон 2015. Этап 2. Гран-при Малайзии. 1-я практика. Sky Sport 1 HD

Вид спорта: Формула 1
Дата/Год выпуска: 27.03.15
Язык комментариев: интершум
Автор записи: SashaR.
Качество: DVB-S2 Remux
Формат видео: TS
Media InfoG:РаздачиФормула 1. Сезон 2015. Этап 2. Гран-при Малайзии (Sky)1080i1-я практика.ts
General #6
ID : 6 (0x6)
Complete name : G:РаздачиФормула 1. Сезон 2015. Этап 2. Гран-при Малайзии (Sky)1080i1-я практика.ts
Format : MPEG-TS
File size : 9.37 GiB
Duration : 1h 42mn
Overall bit rate mode : Variable
Overall bit rate : 13.0 Mbps
Video #767
ID : 767 (0x2FF)
Menu ID : 129 (0x81)
Format : AVC
Format/Info : Advanced Video Codec
Format profile : High@L4.0
Format settings, CABAC : Yes
Format settings, ReFrames : 3 frames
Codec ID : 27
Duration : 1h 42mn
Bit rate : 12.2 Mbps
Width : 1 920 pixels
Height : 1 080 pixels
Display aspect ratio : 16:9
Frame rate : 25.000 fps
Standard : Component
Color space : YUV
Chroma subsampling : 4:2:0
Bit depth : 8 bits
Scan type : Interlaced
Scan order : Top Field First
Bits/(Pixel*Frame) : 0.235
Stream size : 8.74 GiB (93%)
Color primaries : BT.709
Transfer characteristics : BT.709
Matrix coefficients : BT.709
Audio #772
ID : 772 (0x304)
Menu ID : 129 (0x81)
Format : AC-3
Format/Info : Audio Coding 3
Mode extension : CM (complete main)
Format settings, Endianness : Big
Codec ID : 6
Duration : 1h 42mn
Bit rate mode : Constant
Bit rate : 224 Kbps
Channel count : 2 channels
Channel positions : Front: L R
Sampling rate : 48.0 KHz
Bit depth : 16 bits
Compression mode : Lossy
Delay relative to video : 100ms
Stream size : 165 MiB (2%)
Language : English
Language, more info : Clean effects
G:РаздачиФормула 1. Сезон 2015. Этап 2. Гран-при Малайзии (Sky)720p1-я практика.ts
General #48879
ID : 48879 (0xBEEF)
Complete name : G:РаздачиФормула 1. Сезон 2015. Этап 2. Гран-при Малайзии (Sky)720p1-я практика.ts
Format : MPEG-TS
File size : 3.84 GiB
Duration : 1h 42mn
Overall bit rate mode : Variable
Overall bit rate : 5 339 Kbps
Video #68
ID : 68 (0x44)
Menu ID : 1 (0x1)
Format : AVC
Format/Info : Advanced Video Codec
Format profile : High@L4.1
Format settings, CABAC : Yes
Format settings, ReFrames : 1 frame
Format settings, GOP : M=1, N=30
Codec ID : 27
Duration : 1h 42mn
Width : 1 280 pixels
Height : 720 pixels
Display aspect ratio : 16:9
Frame rate : 25.000 fps
Standard : PAL
Color space : YUV
Chroma subsampling : 4:2:0
Bit depth : 8 bits
Scan type : Progressive
Color primaries : BT.601 NTSC
Transfer characteristics : BT.601
Matrix coefficients : BT.601
Audio #69
ID : 69 (0x45)
Menu ID : 1 (0x1)
Format : AAC
Format/Info : Advanced Audio Codec
Format version : Version 2
Format profile : LC
Muxing mode : ADTS
Codec ID : 15
Duration : 1h 42mn
Bit rate mode : Variable
Channel count : 2 channels
Channel positions : Front: L R
Sampling rate : 48.0 KHz
Compression mode : Lossy
Delay relative to video : 71ms
1-я практика - 01:42:56




   Похожие торренты   Торрент   Размер 
В этой теме нет новых непрочитанных сообщений. Формула 1: 02/20. Гран-при Малайзии. 1-я практика [27.03] (2015) HDTV 1080i, 720р, 480р

1 | 96

71.92 ГБ

В этой теме нет новых непрочитанных сообщений. Формула 1. Этап 2. Гран-при Малайзии. 1-ая практика (2014) HDTV 1080i

9 | 4

9.71 ГБ

В этой теме нет новых непрочитанных сообщений. Формула 1. Этап 2. Гран-при Малайзии. 2-ая практика (2014) HDTV 1080i

9 | 4

9.16 ГБ

В этой теме нет новых непрочитанных сообщений. Формула 1. 2016. 16/21. Гран-при Малайзии . 3 практика (Матч Арена HD) [01.10] (2016) HDTV 1080i

7 | 5

4.41 ГБ

В этой теме нет новых непрочитанных сообщений. Формула 1. 2016. 15/21. Гран-при Малайзии . 1 практика (Матч Арена HD) [30.09] (2016) HDTV 1080i

8 | 0

7.59 ГБ

В этой теме нет новых непрочитанных сообщений. Формула 1. 2016. 16/21. Гран-при Малайзии . 2 практика (Матч Арена HD) [30.09] (2016) HDTV 1080i

11 | 0

6.55 ГБ

В этой теме нет новых непрочитанных сообщений. Формула 1: 02/20. Гран-при Малайзии. 1-я и 2-я практика [27.03] (2015) HDTVRip

18 | 5

2.42 ГБ




Вы не можете начинать темы
Вы не можете отвечать на сообщения
Вы не можете редактировать свои сообщения
Вы не можете удалять свои сообщения
Вы не можете добавлять вложения

Перейти:  
Для Мосгорсуда, Роскомнадзора и рекламодателей: mosgorsud-torrent[собачка]yandex.ru
 Вход
ppkBB3cker v.2 © 2008-2014 @ PPK
[ Time : 1.624s | 15 Queries | GZIP : Off ]

Торрент трекер RUTOR.IN, Не можете зайти на rutor.org? Какой новый адрес рутор? Какое зеркало рутор? Не работает rutor.org и зеркала? Тогда наш торрент специально для вас. Rutor.in неофициальное зеркало rutor. В случае если у Вас заблокирован rutor или вдруг Вы не можете на него зайти, то Вы без труда сможете скачать бесплатно и без рекламы последние новинки кино, игр, сериалов и прочего у нас, на Rutor.in. Не нужно использовать прокси, чтобы зайти на рутор, достаточно воспользоваться нашим ресурсом. Все новые фильмы, игры, сериалы, книги и музыка за 2013 и 2014 годы через торрент бесплатно. Скачивайте фильмы в хорошем качестве, игры для пк, xbox, playstation без регистрации. У нас вы найдете новые Зарубежные сериалы и Русские сериалы 2013, 2014, 2015 годов. Оставайтесь с нами, качайте любимые фильмы, игры, сериалы, книги и музыку.