img image001 image001 image001 image001 image001 image001 image001 image001 image001 image001 image001 image001 image001 image001 image001

Planets Sun Sun Sun
Статистика раздачи
Автор: Nickolas3434 | Размер: 4.35 ГБ | Добавлен: 30 мар 2015
Раздают: 36    Качают: 13
Скачать торрент
Скачать торрент
Описание торрента

СообщениеДобавлено: 30 мар 2015 

Формула 1 2015 – Этап 02 – Малайзия – Квалификация (Intro+Live)
SkySportsF1/Россия2




Год выпуска: 2015
Вид спорта: Formula 1 (F1)
Участники: Пилоты Ф1 2015 и специалисты команд
Продолжительность: 2 часа 57 мин
Комментарий: Профессиональный (многоголосый)
Язык комментариев:
русский: А. Попов/Н. Фабричнова(по умолчанию, начало с 54 мин.)
английский: М. Брандл, Д. Крофт, Д. Хилл, с. Лезинби


Содержание:
Малайзия, Сепанг – квалификация.
Intro - интервью, сюжеты, аналитика и прогнозы на квалификацию.
Live - сама квалификация в полном объеме.
Post - постквалификационные интервью и аналитика.

Все сегменты в одном файле
Исходник от: champions
Монтаж аудио: Bin84
Качество: HDTVRip
Формат: MKV
Видео кодек: AVC
Аудио кодек: AC3/MP3
Видео
Format : AVC
Format/Info : Advanced Video Codec
Format profile : High@L4.1
Format settings, CABAC : Yes
Format settings, ReFrames : 5 frames
Codec ID : V_MPEG4/ISO/AVC
Duration : 2h 57mn
Bit rate : 2 867 Kbps
Width : 1 280 pixels
Height : 720 pixels
Display aspect ratio : 16:9
Frame rate mode : Constant
Frame rate : 50.000 fps
Color space : YUV
Chroma subsampling : 4:2:0
Bit depth : 8 bits
Scan type : Progressive
Bits/(Pixel*Frame) : 0.062
Stream size : 3.55 GiB (82%)
Title : Bin84 release
Аудио
Audio #1
ID : 2
Format : MPEG Audio
Format version : Version 1
Format profile : Layer 3
Mode : Joint stereo
Codec ID : A_MPEG/L3
Codec ID/Hint : MP3
Duration : 2h 57mn
Bit rate mode : Constant
Bit rate : 192 Kbps
Channel(s) : 2 channels
Sampling rate : 48.0 KHz
Compression mode : Lossy
Delay relative to video : -40ms
Stream size : 244 MiB (5%)
Title : Russia2
Language : Russian
Default : Yes
Forced : No
Audio #2
ID : 3
Format : AC-3
Format/Info : Audio Coding 3
Mode extension : CM (complete main)
Format settings, Endianness : Big
Codec ID : A_AC3
Duration : 2h 57mn
Bit rate mode : Constant
Bit rate : 384 Kbps
Channel(s) : 2 channels
Channel positions : Front: L R
Sampling rate : 48.0 KHz
Bit depth : 16 bits
Compression mode : Lossy
Stream size : 487 MiB (11%)
Title : SkySportsF1
Language : English
Default : No
Forced : No




   Похожие торренты   Торрент   Размер 
В этой теме нет новых непрочитанных сообщений. Формула 1: 02/20. Гран-при Малайзии. Квалификация. Гонка [27-28.03] (2015) HDTVRip 720p | 50 fps

3 | 27

15.76 ГБ

В этой теме нет новых непрочитанных сообщений. Формула 1: 02/20. Гран-при Малайзии. Квалификация [28.03] (2015) SATRip | 50 fps

64 | 12

1.37 ГБ

В этой теме нет новых непрочитанных сообщений. Формула 1. 2012. Этап 2 из 20. Гран-При Малайзии. Квалификация (2012) HDTVRip 720p

0 | 2

1.49 ГБ

В этой теме нет новых непрочитанных сообщений. Формула 1. 2012. Этап 2 из 20. Гран-При Малайзии. Квалификация. Гонка (2012) HDTVRip 720p

2 | 2

3.78 ГБ

В этой теме нет новых непрочитанных сообщений. Формула 1. 2016. 16/21. Гран-при Малайзии . Квалификация (Матч Арена HD) [01.10] (2016) HDTVRip 720p | 50 fps

206 | 13

2.19 ГБ

В этой теме нет новых непрочитанных сообщений. Формула 1: Гран При Малайзии. Квалификация. 2 этап (2014) SATRip от MediaClub

412 | 50

1.73 ГБ

В этой теме нет новых непрочитанных сообщений. Формула 1: Гран При Малайзии. Квалификация. 2 этап (2014) HDTV 1080i от MediaClub

151 | 11

7.04 ГБ




Вы не можете начинать темы
Вы не можете отвечать на сообщения
Вы не можете редактировать свои сообщения
Вы не можете удалять свои сообщения
Вы не можете добавлять вложения

Перейти:  
Для Мосгорсуда, Роскомнадзора и рекламодателей: mosgorsud-torrent[собачка]yandex.ru
 Вход
ppkBB3cker v.2 © 2008-2014 @ PPK
[ Time : 0.019s | 15 Queries | GZIP : On ]

Торрент трекер RUTOR.IN, Не можете зайти на rutor.org? Какой новый адрес рутор? Какое зеркало рутор? Не работает rutor.org и зеркала? Тогда наш торрент специально для вас. Rutor.in неофициальное зеркало rutor. В случае если у Вас заблокирован rutor или вдруг Вы не можете на него зайти, то Вы без труда сможете скачать бесплатно и без рекламы последние новинки кино, игр, сериалов и прочего у нас, на Rutor.in. Не нужно использовать прокси, чтобы зайти на рутор, достаточно воспользоваться нашим ресурсом. Все новые фильмы, игры, сериалы, книги и музыка за 2013 и 2014 годы через торрент бесплатно. Скачивайте фильмы в хорошем качестве, игры для пк, xbox, playstation без регистрации. У нас вы найдете новые Зарубежные сериалы и Русские сериалы 2013, 2014, 2015 годов. Оставайтесь с нами, качайте любимые фильмы, игры, сериалы, книги и музыку.