img image001 image001 image001 image001 image001 image001 image001 image001 image001 image001 image001 image001 image001 image001 image001

Planets Sun Sun Sun
Статистика раздачи
Автор: Nickolas3434 | Размер: 5.08 ГБ | Добавлен: 12 апр 2015
Раздают: 8    Качают: 19
Скачать торрент
Скачать торрент
Описание торрента

СообщениеДобавлено: 12 апр 2015 

Формула 1. Сезон 2015. Этап 3. Гран-При Китая. Квалификация

Вид спорта: Автоспорт, ЧМ, Формула-1
Дата/Год выпуска: 11.04.2015
Язык комментариев: Русский (А. Попов, Н. Фабричнова), Немецкий
Описание: F1 2015. Этап 3, Китай, Шанхай, Международный автодром Шанхая
11.04.2015, Квалификация, 10:00 (мск) / 12.04.2015 года, Гонка, 09:00 (мск)
Длина: 5451 м / Число кругов: 56 (305 км) / Повороты: 16 (7 левых, 9 правых)
Шины: «софт» и «медиум»
Направление движения: по часовой стрелке
Чётные и нечётные позиции на старте: нечётные позиции находятся на траектории, старт с них выгоднее
Вероятность аварии на старте: 40%
Зоны DRS: две — на стартовой прямой и перед 14-м поворотом
Полный газ: 56% круга
Длиннейшая прямая: 1397 м
Потребление топлива: 1,71 кг/круг
Рекорд в гонке: 1:32.066 (Михаэль Шумахер, «Феррари», 2004 год)
Рекорд в квалификации: 1:33.706 (Себастьян Феттель, «Ред Булл», 2011 год)
Автор рипа/записи: За видео-дорогу спасибо: WSERHKZT За звук и синхронизацию оного с видео: мне)
Качество: HDTV
Формат видео: MKV
Видео: AVC/H.264 / 1920x1080 / 9999 kbps / 25 fps
Аудио 1: AC3 2.0 192 kbps | Русский | Алексей Попов и Наталья Фабричнова
Аудио 2: AC3 5.1 384 kbps | Немецкий | Commentary
Аудио 3: AC3 2.0 224 kbps | Английский | Natural Sound
Полное имя : C:!F1F1.2015.Round03.ChineseGP.Qual.[H264.1080i.25fps].(Rus.Ger)_nnm-club_y607ce.mkv
Формат : Matroska
Версия формата : Version 4 / Version 2
Размер файла : 5,08 Гбайт
Продолжительность : 1 ч. 6 м.
Общий поток : 11,0 Мбит/сек
Название фильма : F1 2015. Round03 - ChineseGP. Qualification [x264/1080i/25fps] SkySportHD1/Россия2 (Rus, Ger) | nnm-club | y607ce
Дата кодирования : UTC 2015-04-11 16:18:44
Программа кодирования : mkvmerge v7.8.0 ('River Man') 64bit built on Mar 27 2015 16:31:37
Библиотека кодирования : libebml v1.3.1 + libmatroska v1.4.2
Attachements : cover.jpg / cover.jpg
DURATION : 01:06:00.800000000
NUMBER_OF_FRAMES : 123775
NUMBER_OF_BYTES : 110902400
_STATISTICS_WRITING_APP : mkvmerge v7.8.0 ('River Man') 64bit built on Mar 27 2015 16:31:37
_STATISTICS_WRITING_DATE_UTC : 2015-04-11 16:18:44
_STATISTICS_TAGS : BPS DURATION NUMBER_OF_FRAMES NUMBER_OF_BYTES
Видео
Идентификатор : 1
Формат : AVC
Формат/Информация : Advanced Video Codec
Профиль формата : High@L4
Параметр CABAC формата : Да
Параметр ReFrames формата : 3 кадра
Идентификатор кодека : V_MPEG4/ISO/AVC
Продолжительность : 1 ч. 6 м.
Битрейт : 9999 Кбит/сек
Ширина : 1920 пикселей
Высота : 1080 пикселей
Соотношение сторон : 16:9
Режим частоты кадров : Постоянный
Частота кадров : 25,000 кадров/сек
Стандарт вещания : Component
Цветовое пространство : YUV
Субдискретизация насыщенности : 4:2:0
Битовая глубина : 8 бит
Тип развёртки : Чересстрочная
Порядок развёртки : Верхнее поле первое
Бит/(Пиксели*Кадры) : 0.193
Размер потока : 4,61 Гбайт (91%)
Заголовок : F1 2015. Round03 - ChineseGP. Qualification [x264/1080i/25fps] SkySportHD1/Россия2 (Rus, Ger) | nnm-club | y607ce
Язык : English
Default : Да
Forced : Да
colour_range : Limited
Основные цвета : BT.709
Характеристики трансфера : BT.709
Коэффициенты матрицы : BT.709
Аудио #1
Идентификатор : 2
Формат : AC-3
Формат/Информация : Audio Coding 3
Расширение режима : CM (complete main)
Параметр Endianness формата : Big
Идентификатор кодека : A_AC3
Продолжительность : 1 ч. 6 м.
Вид битрейта : Постоянный
Битрейт : 192 Кбит/сек
Каналы : 2 канала
Расположение каналов : Front: L R
Частота : 48,0 КГц
Битовая глубина : 16 бит
Метод сжатия : С потерями
Задержка видео : 128 мс.
Размер потока : 90,7 Мбайт (2%)
Заголовок : AC3 2.0 192 kbps | Россия2 - Попов и Фабричнова
Язык : Russian
Default : Да
Forced : Да
Аудио #2
Идентификатор : 3
Формат : AC-3
Формат/Информация : Audio Coding 3
Расширение режима : CM (complete main)
Параметр Endianness формата : Big
Идентификатор кодека : A_AC3
Продолжительность : 1 ч. 6 м.
Вид битрейта : Постоянный
Битрейт : 384 Кбит/сек
Каналы : 6 каналов
Расположение каналов : Front: L C R, Side: L R, LFE
Частота : 48,0 КГц
Битовая глубина : 16 бит
Метод сжатия : С потерями
Задержка видео : 128 мс.
Размер потока : 181 Мбайт (3%)
Заголовок : AC3 5.1 384 kbps | German Commentary
Язык : German
Default : Нет
Forced : Нет
Аудио #3
Идентификатор : 4
Формат : AC-3
Формат/Информация : Audio Coding 3
Расширение режима : CM (complete main)
Параметр Endianness формата : Big
Идентификатор кодека : A_AC3
Продолжительность : 1 ч. 6 м.
Вид битрейта : Постоянный
Битрейт : 224 Кбит/сек
Каналы : 2 канала
Расположение каналов : Front: L R
Частота : 48,0 КГц
Битовая глубина : 16 бит
Метод сжатия : С потерями
Задержка видео : 128 мс.
Размер потока : 106 Мбайт (2%)
Заголовок : AC3 2.0 224 kbps | English Natural Sound
Язык : English
Default : Нет
Forced : Нет
01:06:00



   Похожие торренты   Торрент   Размер 
В этой теме нет новых непрочитанных сообщений. Формула 1: Гран-При Китая. Квалификация. 4 этап [Спорт 1] (2014) HDTV 1080i от MediaClub

119 | 22

8.66 ГБ

В этой теме нет новых непрочитанных сообщений. Формула 1: 03/20. Гран-при Китая. Квалификация [11.04] (2015) HDTV 720р

700 | 215

2.18 ГБ

В этой теме нет новых непрочитанных сообщений. Формула 1. Сезон 2013. Этап 03. Гран-при Китая. Полный уик-энд Гран-при Китая [Спорт 1 HD] (2013) HDTV 1080i

1 | 3

44.5 ГБ

В этой теме нет новых непрочитанных сообщений. Формула 1: 03/20. Гран-при Китая. Квалификация [11.04] (2015) SATRip

173 | 49

1014.89 МБ

В этой теме нет новых непрочитанных сообщений. Формула-1. Гран-при Китая [Россия 2] (2014) HDTV 1080i

222 | 56

9.89 ГБ

В этой теме нет новых непрочитанных сообщений. Формула 1: 03/20. Гран-при Китая. Квалификация (Intro+Live) [SkySportsF1/Россия2] [11.04] (2015) HDTVRip 720p | 50 fps

4 | 16

5.95 ГБ

В этой теме нет новых непрочитанных сообщений. Формула 1. Этап 4. Гран-при Китая. 1-ая практика (2014) HDTV 1080i

44 | 10

7.16 ГБ




Вы не можете начинать темы
Вы не можете отвечать на сообщения
Вы не можете редактировать свои сообщения
Вы не можете удалять свои сообщения
Вы не можете добавлять вложения

Перейти:  
Для Мосгорсуда, Роскомнадзора и рекламодателей: mosgorsud-torrent[собачка]yandex.ru
 Вход
ppkBB3cker v.2 © 2008-2014 @ PPK
[ Time : 0.038s | 16 Queries | GZIP : Off ]

Торрент трекер RUTOR.IN, Не можете зайти на rutor.org? Какой новый адрес рутор? Какое зеркало рутор? Не работает rutor.org и зеркала? Тогда наш торрент специально для вас. Rutor.in неофициальное зеркало rutor. В случае если у Вас заблокирован rutor или вдруг Вы не можете на него зайти, то Вы без труда сможете скачать бесплатно и без рекламы последние новинки кино, игр, сериалов и прочего у нас, на Rutor.in. Не нужно использовать прокси, чтобы зайти на рутор, достаточно воспользоваться нашим ресурсом. Все новые фильмы, игры, сериалы, книги и музыка за 2013 и 2014 годы через торрент бесплатно. Скачивайте фильмы в хорошем качестве, игры для пк, xbox, playstation без регистрации. У нас вы найдете новые Зарубежные сериалы и Русские сериалы 2013, 2014, 2015 годов. Оставайтесь с нами, качайте любимые фильмы, игры, сериалы, книги и музыку.
cron