img image001 image001 image001 image001 image001 image001 image001 image001 image001 image001 image001 image001 image001 image001 image001

Planets Sun Sun Sun
Статистика раздачи
Автор: Nickolas3434 | Размер: 23.7 ГБ | Добавлен: 15 апр 2015
Раздают: 9    Качают: 87
Скачать торрент
Скачать торрент
Описание торрента

СообщениеДобавлено: 15 апр 2015 


Название: Баскетбол. НБА. Матч Всех Звезд
Оригинальное название: NBA. All-Star Game
Год выхода: 2008-2015
Жанр: Спорт, баскетбол
О фильме: Матч всех звёзд НБА 2008-2015 г.
Страна: США
Продолжительность: 8 х ~ 01:40:00
Перевод: Отсутствует
Кодек: MPEG-4 AVC
Качество: HDTVRip (720p)
Видео: 1280x720, ~ 5000 Кбит/с, 60,000 fps
Звук: AC3, 6 ch, 448 Кбит/с
Семпл
General
Unique ID : 209001191244267477051990896136561562924 (0x9D3C2A4EACF1A7EF88733D07391B152C)
Complete name : F:NBA.All.Star.Game.2010.x264.HDTVRip.(720p).mkv
Format : Matroska
Format version : Version 4 / Version 2
File size : 4.67 GiB
Duration : 1h 47mn
Overall bit rate : 6 221 Kbps
Encoded date : UTC 2015-02-23 18:14:06
Writing application : mkvmerge v7.4.0 ('Circles') 64bit built on Dec 12 2014 12:19:56
Writing library : libebml v1.3.0 + libmatroska v1.4.1
_STATISTICS_WRITING_APP : mkvmerge v7.4.0 ('Circles') 64bit built on Dec 12 2014 12:19:56
_STATISTICS_WRITING_DATE_UTC : 2015-02-23 18:14:06
_STATISTICS_TAGS : BPS DURATION NUMBER_OF_FRAMES NUMBER_OF_BYTES
DURATION : 01:47:20.291000000
NUMBER_OF_FRAMES : 201231
NUMBER_OF_BYTES : 360603904
Video
ID : 1
Format : AVC
Format/Info : Advanced Video Codec
Format profile : High@L4.1
Format settings, CABAC : Yes
Format settings, ReFrames : 3 frames
Codec ID : V_MPEG4/ISO/AVC
Duration : 1h 47mn
Bit rate : 5 649 Kbps
Width : 1 280 pixels
Height : 720 pixels
Display aspect ratio : 16:9
Frame rate mode : Constant
Frame rate : 59.880 fps
Original frame rate : 59.940 fps
Color space : YUV
Chroma subsampling : 4:2:0
Bit depth : 8 bits
Scan type : Progressive
Bits/(Pixel*Frame) : 0.102
Stream size : 4.24 GiB (91%)
Default : Yes
Forced : No
Audio
ID : 2
Format : AC-3
Format/Info : Audio Coding 3
Mode extension : CM (complete main)
Format settings, Endianness : Big
Codec ID : A_AC3
Duration : 1h 47mn
Bit rate mode : Constant
Bit rate : 448 Kbps
Channel(s) : 6 channels
Channel positions : Front: L C R, Side: L R, LFE
Sampling rate : 48.0 KHz
Bit depth : 16 bits
Compression mode : Lossy
Delay relative to video : 15ms
Stream size : 344 MiB (7%)
Default : Yes
Forced : No





   Похожие торренты   Торрент   Размер 
В этой теме нет новых непрочитанных сообщений. Баскетбол. НБА. Матч Всех Звезд / NBA. All-Star Game (2008-2016) HDTVRip 720p | 60 fps

2 | 19

26.73 ГБ

В этой теме нет новых непрочитанных сообщений. Баскетбол. НБА. Матч Всех Звёзд / NBA. All-Star Game (2011) HDTVRip

0 | 55

4.3 ГБ

В этой теме нет новых непрочитанных сообщений. Баскетбол. НБА. Матч всех Звезд 2010 / NBA. All-Star Game 2010 (2010) TVRip

9 | 6

2.2 ГБ

В этой теме нет новых непрочитанных сообщений. Баскетбол. NBA All-Star Weekend 2016. Матч будущих звезд. Сборная США - Сборная остального мира [12.02] (2016) HDTVRip 720p | 50 fps

630 | 41

2.48 ГБ

В этой теме нет новых непрочитанных сообщений. Баскетбол. NBA 14/15. NBA All-Star Weekend 2015 / Sprint NBA All-Star Celebrity Game [12.02] (2015) HDTVRip 720p

61 | 17

2.34 ГБ

В этой теме нет новых непрочитанных сообщений. Баскетбол. NBA All-Star Weekend 2016. Матч будущих звезд. Сборная США - Сборная остального мира [12.02] (2016) HDTVRip

198 | 30

1.11 ГБ

В этой теме нет новых непрочитанных сообщений. Хоккей. AHL All-Star Weekend 2016. Мастер шоу + Матч звёзд [31.01-01.02] (2016) HDTVRip 720p | 50 fps

26 | 13

6.32 ГБ




Вы не можете начинать темы
Вы не можете отвечать на сообщения
Вы не можете редактировать свои сообщения
Вы не можете удалять свои сообщения
Вы не можете добавлять вложения

Перейти:  
Для Мосгорсуда, Роскомнадзора и рекламодателей: mosgorsud-torrent[собачка]yandex.ru
 Вход
ppkBB3cker v.2 © 2008-2014 @ PPK
[ Time : 0.033s | 14 Queries | GZIP : On ]

Торрент трекер RUTOR.IN, Не можете зайти на rutor.org? Какой новый адрес рутор? Какое зеркало рутор? Не работает rutor.org и зеркала? Тогда наш торрент специально для вас. Rutor.in неофициальное зеркало rutor. В случае если у Вас заблокирован rutor или вдруг Вы не можете на него зайти, то Вы без труда сможете скачать бесплатно и без рекламы последние новинки кино, игр, сериалов и прочего у нас, на Rutor.in. Не нужно использовать прокси, чтобы зайти на рутор, достаточно воспользоваться нашим ресурсом. Все новые фильмы, игры, сериалы, книги и музыка за 2013 и 2014 годы через торрент бесплатно. Скачивайте фильмы в хорошем качестве, игры для пк, xbox, playstation без регистрации. У нас вы найдете новые Зарубежные сериалы и Русские сериалы 2013, 2014, 2015 годов. Оставайтесь с нами, качайте любимые фильмы, игры, сериалы, книги и музыку.