img image001 image001 image001 image001 image001 image001 image001 image001 image001 image001 image001 image001 image001 image001 image001

Planets Sun Sun Sun
Статистика раздачи
Автор: Nickolas3434 | Размер: 35.05 ГБ | Добавлен: 19 апр 2015
Раздают: 0    Качают: 37
Скачать торрент
Скачать торрент
Описание торрента

СообщениеДобавлено: 19 апр 2015 

Формула 1. Сезон 2015. Этап 04. Гран-при Бахрейна. 1-я и 2-я практика. Sky Sport 1 HD

Вид спорта: Формула 1
Дата/Год выпуска: 17.04.15
Язык комментариев: интершум
Автор рипа/записи: SashaR.
Качество: DVB-S2 Remux
Формат видео: TS
E:РаздачиФормула 1. Сезон 2015. Этап 04. Гран-при Бахрейна1080i1-я практика.ts
General #6
ID : 6 (0x6)
Complete name : E:РаздачиФормула 1. Сезон 2015. Этап 04. Гран-при Бахрейна1080i1-я практика.ts
Format : MPEG-TS
File size : 9.71 GiB
Duration : 1h 41mn
Overall bit rate mode : Variable
Overall bit rate : 13.7 Mbps
Video #767
ID : 767 (0x2FF)
Menu ID : 129 (0x81)
Format : AVC
Format/Info : Advanced Video Codec
Format profile : High@L4.0
Format settings, CABAC : Yes
Format settings, ReFrames : 3 frames
Format settings, GOP : M=4, N=32
Codec ID : 27
Duration : 1h 41mn
Bit rate : 12.8 Mbps
Width : 1 920 pixels
Height : 1 080 pixels
Display aspect ratio : 16:9
Frame rate : 25.000 fps
Standard : Component
Color space : YUV
Chroma subsampling : 4:2:0
Bit depth : 8 bits
Scan type : Interlaced
Scan order : Top Field First
Bits/(Pixel*Frame) : 0.247
Stream size : 9.06 GiB (93%)
Color primaries : BT.709
Transfer characteristics : BT.709
Matrix coefficients : BT.709
Audio #772
ID : 772 (0x304)
Menu ID : 129 (0x81)
Format : AC-3
Format/Info : Audio Coding 3
Mode extension : CM (complete main)
Format settings, Endianness : Big
Codec ID : 6
Duration : 1h 41mn
Bit rate mode : Constant
Bit rate : 224 Kbps
Channel count : 2 channels
Channel positions : Front: L R
Sampling rate : 48.0 KHz
Bit depth : 16 bits
Compression mode : Lossy
Delay relative to video : -317ms
Stream size : 162 MiB (2%)
Language : English
Language, more info : Clean effects
E:РаздачиФормула 1. Сезон 2015. Этап 04. Гран-при Бахрейна480p1-я практика.ts
General #48879
ID : 48879 (0xBEEF)
Complete name : E:РаздачиФормула 1. Сезон 2015. Этап 04. Гран-при Бахрейна480p1-я практика.ts
Format : MPEG-TS
File size : 1.62 GiB
Duration : 1h 41mn
Overall bit rate mode : Variable
Overall bit rate : 2 276 Kbps
Video #68
ID : 68 (0x44)
Menu ID : 1 (0x1)
Format : AVC
Format/Info : Advanced Video Codec
Format profile : High@L4.1
Format settings, CABAC : Yes
Format settings, ReFrames : 1 frame
Format settings, GOP : M=1, N=30
Codec ID : 27
Duration : 1h 41mn
Width : 848 pixels
Height : 480 pixels
Display aspect ratio : 16:9
Frame rate : 25.000 fps
Standard : PAL
Color space : YUV
Chroma subsampling : 4:2:0
Bit depth : 8 bits
Scan type : Progressive
Color primaries : BT.601 NTSC
Transfer characteristics : BT.601
Matrix coefficients : BT.601
Audio #69
ID : 69 (0x45)
Menu ID : 1 (0x1)
Format : AAC
Format/Info : Advanced Audio Codec
Format version : Version 2
Format profile : LC
Muxing mode : ADTS
Codec ID : 15
Duration : 1h 41mn
Bit rate mode : Variable
Channel count : 2 channels
Channel positions : Front: L R
Sampling rate : 48.0 KHz
Compression mode : Lossy
Delay relative to video : 3ms
01:41:20




   Похожие торренты   Торрент   Размер 
В этой теме нет новых непрочитанных сообщений. Формула 1. Сезон 2015. Этап 04. Гран-при Бахрейна. 1-я и 2-я практика. Sky Sport 1 HD [17.04] (2015) DVB-S2 Remux 1080i, 480p

0 | 10

21.86 ГБ

В этой теме нет новых непрочитанных сообщений. Формула 1. Сезон 2015. Этап 04. Гран-при Бахрейна. 1-я и 2-я практика. Sky Sport 1 HD [17.04] (2015) DVB-S2 Remux 1080i, 480p

2 | 11

47.64 ГБ

В этой теме нет новых непрочитанных сообщений. Формула 1. Сезон 2013. Этап 04. Гран При Бахрейна. 01-я практика [Спорт 1 HD] (2013) HDTV 1080i

0 | 2

8.56 ГБ

В этой теме нет новых непрочитанных сообщений. Формула 1. Сезон 2013. Этап 04. Гран При Бахрейна. 03-я практика [Спорт 1 HD] (2013) HDTV 1080i

0 | 2

6.62 ГБ

В этой теме нет новых непрочитанных сообщений. Формула 1. Сезон 2013. Этап 04. Гран При Бахрейна. 02-я практика [Спорт 1 HD] (2013) HDTV 1080i

0 | 2

9.21 ГБ

В этой теме нет новых непрочитанных сообщений. Формула 1. Этап 3. Гран-при Бахрейна. 1-ая практика (2014) HDTV 1080i

14 | 6

6.16 ГБ

В этой теме нет новых непрочитанных сообщений. Формула 1. Этап 3. Гран-при Бахрейна. 3-ая практика (2014) HDTV 1080i

106 | 40

5.95 ГБ




Вы не можете начинать темы
Вы не можете отвечать на сообщения
Вы не можете редактировать свои сообщения
Вы не можете удалять свои сообщения
Вы не можете добавлять вложения

Перейти:  
Для Мосгорсуда, Роскомнадзора и рекламодателей: mosgorsud-torrent[собачка]yandex.ru
 Вход
ppkBB3cker v.2 © 2008-2014 @ PPK
[ Time : 0.057s | 17 Queries | GZIP : Off ]

Торрент трекер RUTOR.IN, Не можете зайти на rutor.org? Какой новый адрес рутор? Какое зеркало рутор? Не работает rutor.org и зеркала? Тогда наш торрент специально для вас. Rutor.in неофициальное зеркало rutor. В случае если у Вас заблокирован rutor или вдруг Вы не можете на него зайти, то Вы без труда сможете скачать бесплатно и без рекламы последние новинки кино, игр, сериалов и прочего у нас, на Rutor.in. Не нужно использовать прокси, чтобы зайти на рутор, достаточно воспользоваться нашим ресурсом. Все новые фильмы, игры, сериалы, книги и музыка за 2013 и 2014 годы через торрент бесплатно. Скачивайте фильмы в хорошем качестве, игры для пк, xbox, playstation без регистрации. У нас вы найдете новые Зарубежные сериалы и Русские сериалы 2013, 2014, 2015 годов. Оставайтесь с нами, качайте любимые фильмы, игры, сериалы, книги и музыку.