img image001 image001 image001 image001 image001 image001 image001 image001 image001 image001 image001 image001 image001 image001 image001

Planets Sun Sun Sun
Статистика раздачи
Автор: Nickolas3434 | Размер: 11.25 ГБ | Добавлен: 26 май 2015
Раздают: 35    Качают: 49
Скачать торрент
Скачать торрент
Описание торрента

СообщениеДобавлено: 26 май 2015 

Формула 1 2015 – Этап 06 – Монако – Гонка (Intro+Live)
SkySportsF1/Россия2




Год выпуска: 2015
Вид спорта: Formula 1 (F1)
Участники: Пилоты Ф1 2015 и специалисты команд
Продолжительность: 1 час 25 мин + 2 часа 11 мин + 1 час 23 мин
Комментарий: Профессиональный (многоголосый)
Язык комментариев:
русский: А. Попов/Н. Фабричнова
(по умолчанию, в сегменте Live, окончание в сегменте Post*)
английский: М. Брандл, Д. Крофт, Д. Хилл, С. Лезинби


Содержание:
Монте-Карло, Монако – гонка.
Intro - интервью, сюжеты, аналитика и прогнозы на гонку.
Live - сама гонка в полном объеме.
Post - послегоночные интервью, пресс-конференция и аналитика
*добавлен комментарий А. Попова из обзора гонки в программе «Большой спорт».

Исходник от:smcgill1969
Монтаж аудио:Bin84
Качество: HDTVRip
Формат: MKV
Видео кодек: AVC
Аудио кодек: MP3/AC3
:ВидеоFormat : AVC
Format/Info : Advanced Video Codec
Format profile : High@L4.0
Format settings, CABAC : Yes
Format settings, ReFrames : 4 frames
Codec ID : V_MPEG4/ISO/AVC
Duration : 2h 11mn
Bit rate : 5 586 Kbps
Width : 1 280 pixels
Height : 720 pixels
Display aspect ratio : 16:9
Frame rate mode : Constant
Frame rate : 50.000 fps
Color space : YUV
Chroma subsampling : 4:2:0
Bit depth : 8 bits
Scan type : Progressive
Bits/(Pixel*Frame) : 0.121
Stream size : 5.14 GiB (90%)
Title : Bin84
АудиоAudio #1
ID : 2
Format : MPEG Audio
Format version : Version 1
Format profile : Layer 3
Mode : Joint stereo
Codec ID : A_MPEG/L3
Codec ID/Hint : MP3
Duration : 2h 11mn
Bit rate mode : Constant
Bit rate : 192 Kbps
Channel(s) : 2 channels
Sampling rate : 48.0 KHz
Compression mode : Lossy
Stream size : 181 MiB (3%)
Title : Russia2
Language : Russian
Default : Yes
Forced : No
Audio #2
ID : 3
Format : AC-3
Format/Info : Audio Coding 3
Mode extension : CM (complete main)
Format settings, Endianness : Big
Codec ID : A_AC3
Duration : 2h 11mn
Bit rate mode : Constant
Bit rate : 320 Kbps
Channel(s) : 6 channels
Channel positions : Front: L C R, Side: L R, LFE
Sampling rate : 48.0 KHz
Bit depth : 16 bits
Compression mode : Lossy
Stream size : 301 MiB (5%)
Title : SkySports
Language : English
Default : No
Forced : No




   Похожие торренты   Торрент   Размер 
В этой теме нет новых непрочитанных сообщений. Формула 1: 08/20. Гран-при Австрии. Гонка (Intro+Live) [SkySportsF1/Россия2] [21.06] (2015) HDTVRip 720p | 50 fps

11 | 28

10.24 ГБ

В этой теме нет новых непрочитанных сообщений. Формула 1: 14/20. Гран-при Японии. Гонка (Intro+Live) [SkySportsF1/Россия2] [27.09] (2015) HDTVRip 720p | 50 fps

15 | 47

8.47 ГБ

В этой теме нет новых непрочитанных сообщений. Формула 1: 05/20. Гран-при Испании. Гонка (Intro+Live) [SkySportsF1/Россия2] [10.05] (2015) HDTVRip 720p | 50 fps

33 | 92

11.76 ГБ

В этой теме нет новых непрочитанных сообщений. Формула 1: 03/20. Гран-при Китая. Гонка (Intro+Live) [SkySportsF1/Россия2] [12.04] (2015) HDTVRip 720p | 50 fps

20 | 29

11.64 ГБ

В этой теме нет новых непрочитанных сообщений. Формула 1: 04/20. Гран-при Бахрейна. Гонка (Intro+Live) [SkySportsF1/BBC/Россия2] [19.04] (2015) HDTVRip 720p | 50 fps

23 | 31

10.74 ГБ

В этой теме нет новых непрочитанных сообщений. Формула 1: 09/20. Гран-при Великобритания. Гонка (Intro+Live) [SkySportsF1/Россия2] [05.07] (2015) HDTVRip 720p | 50 fps

22 | 51

10.59 ГБ

В этой теме нет новых непрочитанных сообщений. Формула 1: 12/20. Гран-при Италии. Гонка (Intro+Live) [SkySportsF1/Россия2] [06.09] (2015) HDTVRip 720p | 50 fps

87 | 176

12.44 ГБ




Вы не можете начинать темы
Вы не можете отвечать на сообщения
Вы не можете редактировать свои сообщения
Вы не можете удалять свои сообщения
Вы не можете добавлять вложения

Перейти:  
Для Мосгорсуда, Роскомнадзора и рекламодателей: mosgorsud-torrent[собачка]yandex.ru
 Вход
ppkBB3cker v.2 © 2008-2014 @ PPK
[ Time : 0.644s | 15 Queries | GZIP : Off ]

Торрент трекер RUTOR.IN, Не можете зайти на rutor.org? Какой новый адрес рутор? Какое зеркало рутор? Не работает rutor.org и зеркала? Тогда наш торрент специально для вас. Rutor.in неофициальное зеркало rutor. В случае если у Вас заблокирован rutor или вдруг Вы не можете на него зайти, то Вы без труда сможете скачать бесплатно и без рекламы последние новинки кино, игр, сериалов и прочего у нас, на Rutor.in. Не нужно использовать прокси, чтобы зайти на рутор, достаточно воспользоваться нашим ресурсом. Все новые фильмы, игры, сериалы, книги и музыка за 2013 и 2014 годы через торрент бесплатно. Скачивайте фильмы в хорошем качестве, игры для пк, xbox, playstation без регистрации. У нас вы найдете новые Зарубежные сериалы и Русские сериалы 2013, 2014, 2015 годов. Оставайтесь с нами, качайте любимые фильмы, игры, сериалы, книги и музыку.