img image001 image001 image001 image001 image001 image001 image001 image001 image001 image001 image001 image001 image001 image001 image001

Planets Sun Sun Sun
Статистика раздачи
Автор: Nickolas3434 | Размер: 2.86 ГБ | Добавлен: 07 июн 2015
Раздают: 314    Качают: 25
Скачать торрент
Скачать торрент
Описание торрента

СообщениеДобавлено: 07 июн 2015 

Чемпионы / Champs


#77
Дата/Год выпуска: 2015
Вид спорта: Бокс | Документальный | Биографический
Язык комментариев: Любительский одноголосый (Георгий Мартьянов)
Субтитры: Английские
Продолжительность: 1:30:40
Автор сценария и режиссёр: Берт Маркус / Bert Marcus
В ролях: 50cent, Мэри Джей Блайдж, Эвандер Холлифилд, Бернард Хопкинс, Рон Ховард, Спайк Ли, Майк Тайсон, Марк Уолберг, Дензел Вашингтон

Описание: Документальный фильм от канала "Starz" о великих боксёрах Майке Тайсоне, Эвандере Холифилде и Бернарде Хопкинсе показываю их жизнь внутри и вне ринга.


Автор рипа/записи: ETRG

Качество: WEB-DL 692p
Формат: MKV
Видео: 1280x692 (1.85:1), 23,976 fps, H264, ~3850 kbps avg, ~0.181 bit/pixel
Аудио #1: 48 kHz, AC3 Dolby Digital, 2/0 (L,R) ch, ~192.00 kbps avg | Любительский одноголосый (Георгий Мартьянов)
Аудио #2: 48 kHz, AC3 Dolby Digital, 3/2 (L,C,R,l,r) + LFE ch, ~384.00 kbps avg | Оригинал

General
Unique ID : 232342650320918130987935842267561965006 (0xAECB911741FAF8BF8EB66F9AC59FB5CE)
Complete name : E:uTorrent.TempTempChamps.2015.720p.WEB-DL.x264-RUS-ENG-ETRG.mkv
Format : Matroska
Format version : Version 4 / Version 2
File size : 2.86 GiB
Duration : 1h 30mn
Overall bit rate : 4 512 Kbps
Encoded date : UTC 2010-02-22 21:41:31
Writing application : mkvmerge v5.9.0 ('On The Loose') built on Dec 9 2012 15:37:01
Writing library : libebml v1.3.0 + libmatroska v1.4.0
Video
ID : 1
Format : AVC
Format/Info : Advanced Video Codec
Format profile : High@L3.1
Format settings, CABAC : No
Format settings, ReFrames : 2 frames
Codec ID : V_MPEG4/ISO/AVC
Duration : 1h 30mn
Bit rate : 3 846 Kbps
Width : 1 280 pixels
Height : 692 pixels
Display aspect ratio : 1.85:1
Frame rate mode : Constant
Frame rate : 23.976 fps
Color space : YUV
Chroma subsampling : 4:2:0
Bit depth : 8 bits
Scan type : Progressive
Bits/(Pixel*Frame) : 0.181
Stream size : 2.44 GiB (85%)
Language : English
Default : Yes
Forced : No
Color range : Limited
Color primaries : BT.709
Transfer characteristics : BT.709
Matrix coefficients : BT.709
Audio #1
ID : 2
Format : AC-3
Format/Info : Audio Coding 3
Mode extension : CM (complete main)
Format settings, Endianness : Big
Codec ID : A_AC3
Duration : 1h 30mn
Bit rate mode : Constant
Bit rate : 192 Kbps
Channel(s) : 2 channels
Channel positions : Front: L R
Sampling rate : 44.1 KHz
Compression mode : Lossy
Stream size : 125 MiB (4%)
Language : Russian
Default : Yes
Forced : Yes
Audio #2
ID : 3
Format : AC-3
Format/Info : Audio Coding 3
Mode extension : CM (complete main)
Format settings, Endianness : Big
Codec ID : A_AC3
Duration : 1h 30mn
Bit rate mode : Constant
Bit rate : 384 Kbps
Channel(s) : 6 channels
Channel positions : Front: L C R, Side: L R, LFE
Sampling rate : 48.0 KHz
Compression mode : Lossy
Stream size : 249 MiB (9%)
Language : English
Default : No
Forced : No
Text
ID : 4
Format : UTF-8
Codec ID : S_TEXT/UTF8
Codec ID/Info : UTF-8 Plain Text
Default : Yes
Forced : No
Menu
00:00:00.000 : en:Chapter 1
00:07:04.000 : en:Chapter 2
00:16:54.000 : en:Chapter 3
00:22:16.000 : en:Chapter 4
00:32:02.000 : en:Chapter 5
00:38:37.000 : en:Chapter 6
00:44:20.000 : en:Chapter 7
00:53:06.000 : en:Chapter 8
01:01:05.000 : en:Chapter 9
01:09:15.000 : en:Chapter 10
01:15:02.000 : en:Chapter 11
01:22:27.000 : en:Chapter 12
01:26:43.000 : en:Chapter 13]



   Похожие торренты   Торрент   Размер 
В этой теме нет новых непрочитанных сообщений. Чемпионы / Champs (2015) WEB-DL 720p

257 | 82

2.74 ГБ

В этой теме нет новых непрочитанных сообщений. Чемпионы / Champs (2015) WEB-DL

63 | 14

780.57 МБ

В этой теме нет новых непрочитанных сообщений. Чемпионы / Champs (2015) WEB-DL | L1

86 | 11

864.06 МБ

В этой теме нет новых непрочитанных сообщений. Smash Champs (2015) Android

29 | 3

75.75 МБ

В этой теме нет новых непрочитанных сообщений. State Champs - Around the World and Back (2015) MP3

34 | 11

131.67 МБ

В этой теме нет новых непрочитанных сообщений. Сфера колдовства / La clé des champs (2011) BDRip 720p от Leonardo | A

8 | 3

7.46 ГБ

В этой теме нет новых непрочитанных сообщений. Чемпионы из подворотни [01-02 из 04] (2012) WEB-DL 720p от Files-x

11 | 5

1.3 ГБ




Вы не можете начинать темы
Вы не можете отвечать на сообщения
Вы не можете редактировать свои сообщения
Вы не можете удалять свои сообщения
Вы не можете добавлять вложения

Перейти:  
Для Мосгорсуда, Роскомнадзора и рекламодателей: mosgorsud-torrent[собачка]yandex.ru
 Вход
ppkBB3cker v.2 © 2008-2014 @ PPK
[ Time : 0.051s | 15 Queries | GZIP : Off ]

Торрент трекер RUTOR.IN, Не можете зайти на rutor.org? Какой новый адрес рутор? Какое зеркало рутор? Не работает rutor.org и зеркала? Тогда наш торрент специально для вас. Rutor.in неофициальное зеркало rutor. В случае если у Вас заблокирован rutor или вдруг Вы не можете на него зайти, то Вы без труда сможете скачать бесплатно и без рекламы последние новинки кино, игр, сериалов и прочего у нас, на Rutor.in. Не нужно использовать прокси, чтобы зайти на рутор, достаточно воспользоваться нашим ресурсом. Все новые фильмы, игры, сериалы, книги и музыка за 2013 и 2014 годы через торрент бесплатно. Скачивайте фильмы в хорошем качестве, игры для пк, xbox, playstation без регистрации. У нас вы найдете новые Зарубежные сериалы и Русские сериалы 2013, 2014, 2015 годов. Оставайтесь с нами, качайте любимые фильмы, игры, сериалы, книги и музыку.