img image001 image001 image001 image001 image001 image001 image001 image001 image001 image001 image001 image001 image001 image001 image001

Planets Sun Sun Sun
Статистика раздачи
Автор: Nickolas3434 | Размер: 5.42 ГБ | Добавлен: 06 июл 2015
Раздают: 39    Качают: 9
Скачать торрент
Скачать торрент
Описание торрента

СообщениеДобавлено: 06 июл 2015 

Формула 1 2015 – Этап 09 – Великобритания – Квалификация (Intro+Live)
SkySportsF1/Россия2




Год выпуска: 2015
Вид спорта: Formula 1 (F1)
Участники: Пилоты Ф1 2015 и специалисты команд
Продолжительность: 55 мин + 1 час 11 мин + 23 мин
Комментарий: Профессиональный (многоголосый)
Язык комментариев:
русский: А. Попов/Н. Фабричнова
(по умолчанию, в сегменте Live)
английский: М. Брандл, Д. Крофт, Д. Хилл, Д. Херберт, С. Лезинби


Содержание:
Великобритания, Сильверстоун – квалификация.
Intro - интервью, сюжеты, аналитика и прогнозы на квалификацию.
Live - сама квалификация в полном объеме.
Post - постквалификационные интервью, пресс-конференция и аналитика.

Исходник от: smcgill1969
Монтаж аудио: Bin84
Качество: HDTVRip
Формат: MKV
Видео кодек: AVC
Аудио кодек: MP3/AC3
ВидеоFormat : AVC
Format/Info : Advanced Video Codec
Format profile : High@L4.0
Format settings, CABAC : Yes
Format settings, ReFrames : 4 frames
Codec ID : V_MPEG4/ISO/AVC
Duration : 1h 11mn
Bit rate : 5 464 Kbps
Width : 1 280 pixels
Height : 720 pixels
Display aspect ratio : 16:9
Frame rate mode : Constant
Frame rate : 50.000 fps
Color space : YUV
Chroma subsampling : 4:2:0
Bit depth : 8 bits
Scan type : Progressive
Bits/(Pixel*Frame) : 0.119
Stream size : 2.75 GiB (90%)
Title : Bin84 release
АудиоAudio #1
ID : 2
Format : MPEG Audio
Format version : Version 1
Format profile : Layer 3
Mode : Joint stereo
Codec ID : A_MPEG/L3
Codec ID/Hint : MP3
Duration : 1h 11mn
Bit rate mode : Constant
Bit rate : 192 Kbps
Channel(s) : 2 channels
Sampling rate : 48.0 KHz
Compression mode : Lossy
Stream size : 98.8 MiB (3%)
Title : Russia2
Language : Russian
Default : Yes
Forced : No
Audio #2
ID : 3
Format : AC-3
Format/Info : Audio Coding 3
Mode extension : CM (complete main)
Format settings, Endianness : Big
Codec ID : A_AC3
Duration : 1h 11mn
Bit rate mode : Constant
Bit rate : 320 Kbps
Channel(s) : 6 channels
Channel positions : Front: L C R, Side: L R, LFE
Sampling rate : 48.0 KHz
Bit depth : 16 bits
Compression mode : Lossy
Stream size : 165 MiB (5%)
Title : SkySports
Language : English
Default : No
Forced : No




   Похожие торренты   Торрент   Размер 
В этой теме нет новых непрочитанных сообщений. Формула 1: 09/20. Гран-при Великобритания. Гонка (Intro+Live) [SkySportsF1/Россия2] [05.07] (2015) HDTVRip 720p | 50 fps

22 | 51

10.59 ГБ

В этой теме нет новых непрочитанных сообщений. Формула 1: 03/20. Гран-при Китая. Квалификация (Intro+Live) [SkySportsF1/Россия2] [11.04] (2015) HDTVRip 720p | 50 fps

4 | 16

5.95 ГБ

В этой теме нет новых непрочитанных сообщений. Формула 1: 15/20. Гран-при России. Квалификация, Гонка (Intro+Live) [SkySportsF1/Россия2] [10-11.10] (2015) HDTVRip 720p | 50 fps

62 | 189

13.16 ГБ

В этой теме нет новых непрочитанных сообщений. Формула 1: 12/20. Гран-при Италии. Гонка (Intro+Live) [SkySportsF1/Россия2] [06.09] (2015) HDTVRip 720p | 50 fps

87 | 176

12.44 ГБ

В этой теме нет новых непрочитанных сообщений. Формула 1: 03/20. Гран-при Китая. Гонка (Intro+Live) [SkySportsF1/Россия2] [12.04] (2015) HDTVRip 720p | 50 fps

20 | 29

11.64 ГБ

В этой теме нет новых непрочитанных сообщений. Формула 1: 11/20. Гран-при Бельгии. Гонка (Intro+Live) [SkySportsF1/Россия2] [23.08] (2015) HDTVRip 720p | 50 fps

111 | 164

10.68 ГБ

В этой теме нет новых непрочитанных сообщений. Формула 1: 08/20. Гран-при Австрии. Гонка (Intro+Live) [SkySportsF1/Россия2] [21.06] (2015) HDTVRip 720p | 50 fps

11 | 28

10.24 ГБ




Вы не можете начинать темы
Вы не можете отвечать на сообщения
Вы не можете редактировать свои сообщения
Вы не можете удалять свои сообщения
Вы не можете добавлять вложения

Перейти:  
Для Мосгорсуда, Роскомнадзора и рекламодателей: mosgorsud-torrent[собачка]yandex.ru
 Вход
ppkBB3cker v.2 © 2008-2014 @ PPK
[ Time : 0.038s | 17 Queries | GZIP : Off ]

Торрент трекер RUTOR.IN, Не можете зайти на rutor.org? Какой новый адрес рутор? Какое зеркало рутор? Не работает rutor.org и зеркала? Тогда наш торрент специально для вас. Rutor.in неофициальное зеркало rutor. В случае если у Вас заблокирован rutor или вдруг Вы не можете на него зайти, то Вы без труда сможете скачать бесплатно и без рекламы последние новинки кино, игр, сериалов и прочего у нас, на Rutor.in. Не нужно использовать прокси, чтобы зайти на рутор, достаточно воспользоваться нашим ресурсом. Все новые фильмы, игры, сериалы, книги и музыка за 2013 и 2014 годы через торрент бесплатно. Скачивайте фильмы в хорошем качестве, игры для пк, xbox, playstation без регистрации. У нас вы найдете новые Зарубежные сериалы и Русские сериалы 2013, 2014, 2015 годов. Оставайтесь с нами, качайте любимые фильмы, игры, сериалы, книги и музыку.