img image001 image001 image001 image001 image001 image001 image001 image001 image001 image001 image001 image001 image001 image001 image001

Planets Sun Sun Sun
Статистика раздачи
Автор: Nickolas3434 | Размер: 504.28 МБ | Добавлен: 27 июл 2015
Раздают: 16    Качают: 1
Скачать торрент
Скачать торрент
Описание торрента

СообщениеДобавлено: 27 июл 2015 


Информация о фильме
Название: Место антагонистов минералкортикоидных рецепторов в структуре лечения ХСН .IPTVRip 720p
Год выхода: 2015
Жанр: Кардиология/Сердечная недостаточность
Режиссер: нет
В ролях: нет
О фильме:
Видеолекция « Место антагонистов минералкортикоидных рецепторов ( спиронолактона и эплеренона) в структуре лечения хронической сердечной недостаточности : как отличаются Европейские и Российские рекомендации.»
Лектор :Агеев Фаиль Таипович, д.м.н, проф.,НИИ кардиологии им. Мясникова ,ФГБУ РКНПК МЗ РФ .
Общее
Полное имя : C:UsersUserDesktopМесто антагонистов минералкортикоидных рецепторов в структуре лечения ХСН.Агеев Ф.Т,д.м.н.,проф.,Научно-диспансерный отдел РКНПК МЗ РФ.2015.mp4
Формат : MPEG-4
Профиль формата : Base Media / Version 2
Идентификатор кодека : mp42
Размер файла : 504 Мбайт
Продолжительность : 1 ч. 2 м.
Режим общего битрейта : Переменный
Общий поток : 1134 Кбит/сек
Дата кодирования : UTC 2015-03-31 17:26:08
Дата пометки : UTC 2015-03-31 17:26:08
gsst : 0
gstd : 3729008
gssd : B4A7DDA05MH1428188038243826
Видео
Идентификатор : 1
Формат : AVC
Формат/Информация : Advanced Video Codec
Профиль формата : High@L3.1
Параметр CABAC формата : Да
Параметр ReFrames формата : 1 кадр
Параметр GOP формата : M=1, N=60
Идентификатор кодека : avc1
Идентификатор кодека/Информация : Advanced Video Coding
Продолжительность : 1 ч. 2 м.
Битрейт : 940 Кбит/сек
Максимальный битрейт : 3070 Кбит/сек
Ширина : 1280 пикселей
Высота : 720 пикселей
Соотношение сторон : 16:9
Режим частоты кадров : Постоянный
Частота кадров : 29,970 кадров/сек
Цветовое пространство : YUV
Субдискретизация насыщенности : 4:2:0
Битовая глубина : 8 бит
Тип развёртки : Прогрессивная
Бит/(Пиксели*Кадры) : 0.034
Размер потока : 418 Мбайт (83%)
Дата пометки : UTC 2015-03-31 17:28:27
Аудио
Идентификатор : 2
Формат : AAC
Формат/Информация : Advanced Audio Codec
Профиль формата : LC
Идентификатор кодека : 40
Продолжительность : 1 ч. 2 м.
Вид битрейта : Переменный
Битрейт : 192 Кбит/сек
Максимальный битрейт : 201 Кбит/сек
Каналы : 2 канала
Расположение каналов : Front: L R
Частота : 44,1 КГц
Метод сжатия : С потерями
Размер потока : 85,3 Мбайт (17%)
Дата кодирования : UTC 2015-03-31 17:27:35
Дата пометки : UTC 2015-03-31 17:28:27

Также рекомендуется :
В.Ю.Мареев.МНОЦ МГУ им.Ломоносова.Роль трёхкомпонентной блокады альдостерона в лечении хронической сердечной недостаточности [2014, видеоматериал для врачей]
Страна: Россия
Студия: Общество специалистов по сердечной недостаточности
Продолжительность: 01:02:08
Перевод: не требуется
Файл
Кодек: MP4
Качество: IPTVRip 720p
Видео: AVC,940 Кбит/сек,1280 Х 720 px,16:9,29 кадров/сек
Звук: AAC,192 Кбит/сек,2 канала,44,1 КГц






Релиз от:



   Похожие торренты   Торрент   Размер 
В этой теме нет новых непрочитанных сообщений. В.Ю.Мареев.Коррекция множественных факторов риска -путь успешного лечения АГ, ИБС, метаболических нарушений (2012) IPTVRip

37 | 2

689.91 МБ

В этой теме нет новых непрочитанных сообщений. Место торасемида в лечении больных ХСН и артериальной гипертезией (2014) IPTVRip 720p

19 | 2

402.52 МБ

В этой теме нет новых непрочитанных сообщений. Елена Первушина - Инфекционные болезни. Меры профилактики и лечения (2015) PDF

417 | 4

9.98 МБ

В этой теме нет новых непрочитанных сообщений. XXXI Летние Олимпийские Игры. Рио-де-Жанейро (Бразилия). Водное поло. Женщины. За 3-е место Россия - Венгрия [19.08] (2016) IPTVRip 720p

45 | 14

1.44 ГБ

В этой теме нет новых непрочитанных сообщений. Странное дело. Мертвое место [29.04] (2012) IPTVRip от Generalfilm

11 | 7

583.91 МБ

В этой теме нет новых непрочитанных сообщений. ХХХ Летние Олимпийские Игры. Вольная борьба. Мужчины. 55 кг, 74 кг. За 3-е место, финалы [10.08] (2012) IPTVRip

0 | 2

1.08 ГБ

В этой теме нет новых непрочитанных сообщений. Молочница: выбираем пути лечения (2009) DVDRip

1 | 1

696.05 МБ




Вы не можете начинать темы
Вы не можете отвечать на сообщения
Вы не можете редактировать свои сообщения
Вы не можете удалять свои сообщения
Вы не можете добавлять вложения

Перейти:  
Для Мосгорсуда, Роскомнадзора и рекламодателей: mosgorsud-torrent[собачка]yandex.ru
 Вход
ppkBB3cker v.2 © 2008-2014 @ PPK
[ Time : 0.044s | 16 Queries | GZIP : Off ]

cron