img image001 image001 image001 image001 image001 image001 image001 image001 image001 image001 image001 image001 image001 image001 image001

Planets Sun Sun Sun
Статистика раздачи
Автор: Nickolas3434 | Размер: 12.84 ГБ | Добавлен: 29 июл 2015
Раздают: 102    Качают: 151
Скачать торрент
Скачать торрент
Описание торрента

СообщениеДобавлено: 29 июл 2015 

Формула 1 2015 – Этап 10 – Венгрия – Гонка (Intro+Live)
SkySportsF1/BBC/Россия2




Год выпуска: 2015
Вид спорта: Formula 1 (F1)
Участники: Пилоты Ф1 2015 и специалисты команд
Продолжительность: 40 мин + 1 час 24 мин + 2 часа 18 мин + 59 мин
Комментарий: Профессиональный (многоголосый)
Язык комментариев:
русский: А. Попов/Н. Фабричнова
(по умолчанию, в сегменте Live)
английский: М. Брандл, Д. Крофт, Д. Хилл, Д. Херберт, С. Лезинби
английский: Б. Эдвардс, Д. Култхард


Содержание:
Венгрия, Хунгароринг – гонка.
Intro - интервью, сюжеты, аналитика и прогнозы на гонку.
Live - сама гонка в полном объеме.
Post - послегоночные интервью и аналитика.

В сегменте Intro от Sky картинка часто рассыпается.
Остальные сегменты записаны нормально.
Исходник от:smcgill1969/Scene group
Монтаж аудио:Bin84
Качество: HDTVRip
Формат: MKV
Видео кодек: AVC
Аудио кодек: MP3/AC3
ВидеоFormat : AVC
Format/Info : Advanced Video Codec
Format profile : High@L4.0
Format settings, CABAC : Yes
Format settings, ReFrames : 4 frames
Codec ID : V_MPEG4/ISO/AVC
Duration : 2h 18mn
Bit rate : 6 430 Kbps
Width : 1 280 pixels
Height : 720 pixels
Display aspect ratio : 16:9
Frame rate mode : Constant
Frame rate : 50.000 fps
Color space : YUV
Chroma subsampling : 4:2:0
Bit depth : 8 bits
Scan type : Progressive
Bits/(Pixel*Frame) : 0.140
Stream size : 6.20 GiB (88%)
Title : Bin84 release
Аудио
Audio #1
ID : 2
Format : MPEG Audio
Format version : Version 1
Format profile : Layer 3
Mode : Joint stereo
Codec ID : A_MPEG/L3
Codec ID/Hint : MP3
Duration : 2h 18mn
Bit rate mode : Constant
Bit rate : 192 Kbps
Channel(s) : 2 channels
Sampling rate : 48.0 KHz
Compression mode : Lossy
Stream size : 190 MiB (3%)
Title : Russia2
Language : Russian
Default : Yes
Forced : No
Audio #2
ID : 3
Format : AC-3
Format/Info : Audio Coding 3
Mode extension : CM (complete main)
Format settings, Endianness : Big
Codec ID : A_AC3
Duration : 2h 18mn
Bit rate mode : Constant
Bit rate : 320 Kbps
Channel(s) : 6 channels
Channel positions : Front: L C R, Side: L R, LFE
Sampling rate : 48.0 KHz
Bit depth : 16 bits
Compression mode : Lossy
Stream size : 316 MiB (4%)
Title : SkySports
Language : English
Default : No
Forced : No
Audio #3
ID : 4
Format : MPEG Audio
Format version : Version 1
Format profile : Layer 3
Mode : Joint stereo
Codec ID : A_MPEG/L3
Codec ID/Hint : MP3
Duration : 2h 18mn
Bit rate mode : Constant
Bit rate : 192 Kbps
Channel(s) : 2 channels
Sampling rate : 48.0 KHz
Compression mode : Lossy
Stream size : 190 MiB (3%)
Title : BBC
Language : English
Default : No
Forced : No





   Похожие торренты   Торрент   Размер 
В этой теме нет новых непрочитанных сообщений. Формула 1: 11/20. Гран-при Бельгии. Гонка (Intro+Live) [SkySportsF1/Россия2] [23.08] (2015) HDTVRip 720p | 50 fps

111 | 164

10.68 ГБ

В этой теме нет новых непрочитанных сообщений. Формула 1: 05/20. Гран-при Испании. Гонка (Intro+Live) [SkySportsF1/Россия2] [10.05] (2015) HDTVRip 720p | 50 fps

33 | 92

11.76 ГБ

В этой теме нет новых непрочитанных сообщений. Формула 1: 07/20. Гран-при Канады. Гонка (Intro+Live) [SkySportsF1/Россия2] [07.06] (2015) HDTVRip 720p | 50 fps

27 | 76

10.85 ГБ

В этой теме нет новых непрочитанных сообщений. Формула 1: 09/20. Гран-при Великобритания. Гонка (Intro+Live) [SkySportsF1/Россия2] [05.07] (2015) HDTVRip 720p | 50 fps

22 | 51

10.59 ГБ

В этой теме нет новых непрочитанных сообщений. Формула 1: 04/20. Гран-при Бахрейна. Гонка (Intro+Live) [SkySportsF1/BBC/Россия2] [19.04] (2015) HDTVRip 720p | 50 fps

23 | 31

10.74 ГБ

В этой теме нет новых непрочитанных сообщений. Формула 1: 03/20. Гран-при Китая. Гонка (Intro+Live) [SkySportsF1/Россия2] [12.04] (2015) HDTVRip 720p | 50 fps

20 | 29

11.64 ГБ

В этой теме нет новых непрочитанных сообщений. Формула 1: 14/20. Гран-при Японии. Гонка (Intro+Live) [SkySportsF1/Россия2] [27.09] (2015) HDTVRip 720p | 50 fps

15 | 47

8.47 ГБ




Вы не можете начинать темы
Вы не можете отвечать на сообщения
Вы не можете редактировать свои сообщения
Вы не можете удалять свои сообщения
Вы не можете добавлять вложения

Перейти:  
Для Мосгорсуда, Роскомнадзора и рекламодателей: mosgorsud-torrent[собачка]yandex.ru
 Вход
ppkBB3cker v.2 © 2008-2014 @ PPK
[ Time : 0.048s | 18 Queries | GZIP : Off ]

cron