img image001 image001 image001 image001 image001 image001 image001 image001 image001 image001 image001 image001 image001 image001 image001

Planets Sun Sun Sun
Статистика раздачи
Автор: Nickolas3434 | Размер: 2.37 ГБ | Добавлен: 04 авг 2015
Раздают: 29    Качают: 7
Скачать торрент
Скачать торрент
Описание торрента

СообщениеДобавлено: 04 авг 2015 

Чемпионат мира по водным видам спорта 2015 | Плавание | День 1 | Финалы

Дата: 02.08.2015
Вид спорта: Плавание
Продолжительность: 01:38:11
Язык комментариев: русский|Д. Губерниев
Канал: Россия 2

Дисциплины
Women's Butterfly 100m Semi-Finals
Men's Freestyle 400m Final
Women's Medley 200m Semi-Finals
Men's Butterfly 50m Semi-Finals
Women's Freestyle 400m Final
Men's Breaststroke 100m Semi-Finals
Women's Freestyle 4x100m Final
Men's Freestyle 4x100m Final
Автор записи: A$taroth
Качество: IPTV
Формат: MPEG-TS
Видео кодек: MPEG2 Video
Аудио кодек: MP2
Видео: MPEG2 Video | 720x576 [4:3] | 25 fps | ~ 2900 Kbps
Аудио: MP2 | 2 ch | 48.0 KHz | 384 Kbps

General
ID : 1 (0x1)
Complete name : C:ReleasesSportKazan-2015 [WC].Swimming.Sport [IPTV]Kazan-2015 [WC].Swimming.Day1.Finals.Sport [IPTV].ts
Format : MPEG-TS
File size : 2.37 GiB
Duration : 1h 38mn
Overall bit rate mode : Variable
Overall bit rate : 3 458 Kbps
Maximum Overall bit rate : 35.5 Mbps
Video
ID : 4113 (0x1011)
Menu ID : 1 (0x1)
Format : MPEG Video
Format version : Version 2
Format profile : Main@Main
Format settings, BVOP : Yes
Format settings, Matrix : Default
Format settings, GOP : M=3, N=15
Format settings, picture structure : Frame
Codec ID : 2
Duration : 1h 38mn
Bit rate mode : Variable
Bit rate : 2 899 Kbps
Maximum bit rate : 5 841 Kbps
Width : 720 pixels
Height : 576 pixels
Display aspect ratio : 4:3
Frame rate : 25.000 fps
Standard : PAL
Color space : YUV
Chroma subsampling : 4:2:0
Bit depth : 8 bits
Scan type : Interlaced
Scan order : Top Field First
Compression mode : Lossy
Bits/(Pixel*Frame) : 0.280
Time code of first frame : 00:00:00:00
Time code source : Group of pictures header
GOP, Open/Closed : Open
GOP, Open/Closed of first frame : Closed
Stream size : 1.99 GiB (84%)
Audio
ID : 4352 (0x1100)
Menu ID : 1 (0x1)
Format : MPEG Audio
Format version : Version 1
Format profile : Layer 2
Codec ID : 4
Duration : 1h 38mn
Bit rate mode : Constant
Bit rate : 384 Kbps
Channel(s) : 2 channels
Sampling rate : 48.0 KHz
Compression mode : Lossy
Delay relative to video : -19ms
Stream size : 270 MiB (11%)
Language : Russian



   Похожие торренты   Торрент   Размер 
В этой теме нет новых непрочитанных сообщений. Чемпионат мира. Плавание. День 6. Финалы [07.08] (2015) IPTVRip

36 | 14

3.35 ГБ

В этой теме нет новых непрочитанных сообщений. Чемпионат мира. Плавание. День 5. Предварительные заплывы и Финалы [06.08] (2015) IPTVRip

44 | 10

2.46 ГБ

В этой теме нет новых непрочитанных сообщений. Чемпионат мира. Плавание. День 2. Предварительные заплывы и Финалы [03.08] (2015) IPTVRip

46 | 19

2.59 ГБ

В этой теме нет новых непрочитанных сообщений. Чемпионат мира. Плавание. День 2. Предварительные заплывы и Финалы [04.08] (2015) IPTVRip

14 | 5

2.45 ГБ

В этой теме нет новых непрочитанных сообщений. Чемпионат мира. Плавание. День 4. Предварительные заплывы и Финалы [05.08] (2015) IPTVRip

54 | 12

2.5 ГБ

В этой теме нет новых непрочитанных сообщений. Чемпионат мира. Плавание. День 3. Финалы [04.08] (2015) HDTV 1080i

28 | 6

7.74 ГБ

В этой теме нет новых непрочитанных сообщений. Чемпионат мира. Плавание. День 5. Финалы [06.08] (2015) IPTV 1080i

12 | 10

8.65 ГБ




Вы не можете начинать темы
Вы не можете отвечать на сообщения
Вы не можете редактировать свои сообщения
Вы не можете удалять свои сообщения
Вы не можете добавлять вложения

Перейти:  
Для Мосгорсуда, Роскомнадзора и рекламодателей: mosgorsud-torrent[собачка]yandex.ru
 Вход
ppkBB3cker v.2 © 2008-2014 @ PPK
[ Time : 0.034s | 15 Queries | GZIP : Off ]

cron