img image001 image001 image001 image001 image001 image001 image001 image001 image001 image001 image001 image001 image001 image001 image001

Planets Sun Sun Sun
Статистика раздачи
Автор: Nickolas3434 | Размер: 11.28 ГБ | Добавлен: 07 авг 2015
Раздают: 9    Качают: 7
Скачать торрент
Скачать торрент
Описание торрента

СообщениеДобавлено: 07 авг 2015 

Чемпионат мира по водным видам спорта 2015 | Плавание | День 4 | Финалы

Дата: 05.08.2015
Вид спорта: Плавание
Продолжительность: 02:12:23
Язык комментариев: русский|Д. Губерниев
Канал: Спорт1

Men's Freestyle 100m Semi-Finals
Women's Backstroke 50m Semi-Finals
Men's Butterfly 200m Final
Women's Freestyle 200m Final
Men's Breaststroke 50m Final
Women's Butterfly 200m Semi-Finals
Men's Medley 200m Semi-Finals
Men's Freestyle 800m Final
Mixed Medley 4x100m Final

Автор записи: A$taroth
Качество: HDTV
Формат: MPEG-TS
Видео кодек: MPEG2 Video
Аудио кодек: MP2
Видео: MPEG2 Video | 1920x1080 [16:9] | 25 fps | ~ 11.4 Mbps
Аудио: MP2 | 2 ch | 48.0 KHz | 192 Kbps

General
ID : 39936 (0x9C00)
Complete name : C:ReleasesSportKazan-2015 [WC].Swimming.Sport [HDTV]Kazan-2015 [WC].Swimming.Day4.Finals.Sport [HDTV].ts
Format : MPEG-TS
File size : 11.3 GiB
Duration : 2h 12mn
Overall bit rate mode : Variable
Overall bit rate : 12.2 Mbps
Video
ID : 69 (0x45)
Menu ID : 1 (0x1)
Format : AVC
Format/Info : Advanced Video Codec
Format profile : High@L4
Format settings, CABAC : Yes
Format settings, ReFrames : 3 frames
Codec ID : 27
Duration : 2h 12mn
Bit rate : 11.4 Mbps
Width : 1 920 pixels
Height : 1 080 pixels
Display aspect ratio : 16:9
Frame rate : 25.000 fps
Standard : Component
Color space : YUV
Chroma subsampling : 4:2:0
Bit depth : 8 bits
Scan type : Interlaced
Scan order : Top Field First
Bits/(Pixel*Frame) : 0.220
Stream size : 10.5 GiB (93%)
Color range : Limited
Color primaries : BT.709
Transfer characteristics : BT.709
Matrix coefficients : BT.709
Audio
ID : 68 (0x44)
Menu ID : 1 (0x1)
Format : MPEG Audio
Format version : Version 1
Format profile : Layer 2
Codec ID : 3
Duration : 2h 12mn
Bit rate mode : Constant
Bit rate : 192 Kbps
Channel(s) : 2 channels
Sampling rate : 48.0 KHz
Compression mode : Lossy
Delay relative to video : -897ms
Stream size : 182 MiB (2%)
Language : Russian



   Похожие торренты   Торрент   Размер 
В этой теме нет новых непрочитанных сообщений. Чемпионат мира. Плавание. День 6. Финалы [07.08] (2015) HDTV 1080i

8 | 5

10.06 ГБ

В этой теме нет новых непрочитанных сообщений. Чемпионат мира. Плавание. День 2. Финалы [03.08] (2015) HDTV 1080i

29 | 22

6.49 ГБ

В этой теме нет новых непрочитанных сообщений. Чемпионат мира. Плавание. День 3. Финалы [04.08] (2015) HDTV 1080i

28 | 6

7.74 ГБ

В этой теме нет новых непрочитанных сообщений. Чемпионат мира. Плавание. День 8. Финалы [09.08] (2015) HDTV 1080i

17 | 7

9.93 ГБ

В этой теме нет новых непрочитанных сообщений. Чемпионат мира. Плавание. День 7. Финалы [08.08] (2015) HDTV 1080i

12 | 3

9.07 ГБ

В этой теме нет новых непрочитанных сообщений. Чемпионат мира. Плавание. День 5. Финалы [06.08] (2015) IPTV 1080i

12 | 10

8.65 ГБ

В этой теме нет новых непрочитанных сообщений. Чемпионат мира. Плавание. День 1. Финалы [02.08] (2015) IPTVRip

29 | 7

2.37 ГБ




Вы не можете начинать темы
Вы не можете отвечать на сообщения
Вы не можете редактировать свои сообщения
Вы не можете удалять свои сообщения
Вы не можете добавлять вложения

Перейти:  
Для Мосгорсуда, Роскомнадзора и рекламодателей: mosgorsud-torrent[собачка]yandex.ru
 Вход
ppkBB3cker v.2 © 2008-2014 @ PPK
[ Time : 0.022s | 15 Queries | GZIP : On ]

Торрент трекер RUTOR.IN, Не можете зайти на rutor.org? Какой новый адрес рутор? Какое зеркало рутор? Не работает rutor.org и зеркала? Тогда наш торрент специально для вас. Rutor.in неофициальное зеркало rutor. В случае если у Вас заблокирован rutor или вдруг Вы не можете на него зайти, то Вы без труда сможете скачать бесплатно и без рекламы последние новинки кино, игр, сериалов и прочего у нас, на Rutor.in. Не нужно использовать прокси, чтобы зайти на рутор, достаточно воспользоваться нашим ресурсом. Все новые фильмы, игры, сериалы, книги и музыка за 2013 и 2014 годы через торрент бесплатно. Скачивайте фильмы в хорошем качестве, игры для пк, xbox, playstation без регистрации. У нас вы найдете новые Зарубежные сериалы и Русские сериалы 2013, 2014, 2015 годов. Оставайтесь с нами, качайте любимые фильмы, игры, сериалы, книги и музыку.