img image001 image001 image001 image001 image001 image001 image001 image001 image001 image001 image001 image001 image001 image001 image001

Planets Sun Sun Sun
Статистика раздачи
Автор: Nickolas3434 | Размер: 3.81 ГБ | Добавлен: 12 авг 2015
Раздают: 53    Качают: 8
Скачать торрент
Скачать торрент
Описание торрента

СообщениеДобавлено: 12 авг 2015 

Match of the Day

Вид спорта: Футбол
Год выпуска: 08.08.2015-09.08.2015
Язык комментариев: Английский
Описание: Выпуск "Match of the Day", посвященный прошедшим в субботу и воскресенье матчам 1-го тура АПЛ.
Автор рипа: FTP
Качество: HDTVRip
Формат видео: MKV
Видео: AVC, 1280*720, 25 fps, 3230 Kbps
Аудио: AC3, 6 ch, 48,0 KHz, 384 Kbps
1:19:59 + 1:09:59
General
Unique ID : 242608079863455629854156024097495235290 (0xB6849DD7EB97162EA98C49687152BADA)
Complete name : F:APLMatch of the Day 2015-2016s.15-16 Week 01match.of.the.day.2015.08.08.720p.hdtv.x264-ftp.mkv
Format : Matroska
Format version : Version 2
File size : 2.06 GiB
Duration : 1h 19mn
Overall bit rate : 3 688 Kbps
Encoded date : UTC 2015-08-08 23:43:20
Writing application : mkvmerge v5.8.0 ('No Sleep / Pillow') built on Sep 2 2012 15:37:04
Writing library : libebml v1.2.3 + libmatroska v1.3.0
Video
ID : 1
Format : AVC
Format/Info : Advanced Video Codec
Format profile : High@L4.1
Format settings, CABAC : Yes
Format settings, ReFrames : 5 frames
Codec ID : V_MPEG4/ISO/AVC
Duration : 1h 19mn
Bit rate : 3 230 Kbps
Width : 1 280 pixels
Height : 720 pixels
Display aspect ratio : 16:9
Frame rate mode : Constant
Frame rate : 25.000 fps
Color space : YUV
Chroma subsampling : 4:2:0
Bit depth : 8 bits
Scan type : Progressive
Bits/(Pixel*Frame) : 0.140
Stream size : 1.80 GiB (88%)
Writing library : x264 core 148 r2579 73ae2d1
Encoding settings : cabac=1 / ref=5 / deblock=1:0:0 / analyse=0x3:0x113 / me=umh / subme=8 / psy=1 / psy_rd=1.00:0.00 / mixed_ref=1 / me_range=16 / chroma_me=1 / trellis=1 / 8x8dct=1 / cqm=0 / deadzone=21,11 / fast_pskip=1 / chroma_qp_offset=-2 / threads=12 / lookahead_threads=2 / sliced_threads=0 / nr=0 / decimate=1 / interlaced=0 / bluray_compat=0 / constrained_intra=0 / bframes=3 / b_pyramid=2 / b_adapt=2 / b_bias=0 / direct=3 / weightb=1 / open_gop=0 / weightp=2 / keyint=250 / keyint_min=25 / scenecut=40 / intra_refresh=0 / rc_lookahead=50 / rc=crf / mbtree=1 / crf=23.0 / qcomp=0.60 / qpmin=0 / qpmax=69 / qpstep=4 / ip_ratio=1.40 / aq=1:1.00
Default : Yes
Forced : No
Audio
ID : 2
Format : AC-3
Format/Info : Audio Coding 3
Mode extension : CM (complete main)
Format settings, Endianness : Big
Codec ID : A_AC3
Duration : 1h 19mn
Bit rate mode : Constant
Bit rate : 384 Kbps
Channel(s) : 6 channels
Channel positions : Front: L C R, Side: L R, LFE
Sampling rate : 48.0 KHz
Bit depth : 16 bits
Compression mode : Lossy
Stream size : 220 MiB (10%)
Title : English
Language : English
Default : Yes
Forced : No
General
Unique ID : 170705966468301761582445646781316644898 (0x806CC5F3C1CA74168CD2AADA33A4C022)
Complete name : F:APLMatch of the Day 2015-2016s.15-16 Week 01match.of.the.day.two.2015.08.09.720p.hdtv.x264-ftp.mkv
Format : Matroska
Format version : Version 2
File size : 1.75 GiB
Duration : 1h 9mn
Overall bit rate : 3 580 Kbps
Encoded date : UTC 2015-08-09 23:36:30
Writing application : mkvmerge v5.8.0 ('No Sleep / Pillow') built on Sep 2 2012 15:37:04
Writing library : libebml v1.2.3 + libmatroska v1.3.0
Video
ID : 1
Format : AVC
Format/Info : Advanced Video Codec
Format profile : High@L4.1
Format settings, CABAC : Yes
Format settings, ReFrames : 5 frames
Codec ID : V_MPEG4/ISO/AVC
Bit rate : 3 124 Kbps
Width : 1 280 pixels
Height : 720 pixels
Display aspect ratio : 16:9
Frame rate mode : Variable
Original frame rate : 25.000 fps
Color space : YUV
Chroma subsampling : 4:2:0
Bit depth : 8 bits
Scan type : Progressive
Writing library : x264 core 148 r2579 73ae2d1
Encoding settings : cabac=1 / ref=5 / deblock=1:0:0 / analyse=0x3:0x113 / me=umh / subme=8 / psy=1 / psy_rd=1.00:0.00 / mixed_ref=1 / me_range=16 / chroma_me=1 / trellis=1 / 8x8dct=1 / cqm=0 / deadzone=21,11 / fast_pskip=1 / chroma_qp_offset=-2 / threads=12 / lookahead_threads=2 / sliced_threads=0 / nr=0 / decimate=1 / interlaced=0 / bluray_compat=0 / constrained_intra=0 / bframes=3 / b_pyramid=2 / b_adapt=2 / b_bias=0 / direct=3 / weightb=1 / open_gop=0 / weightp=2 / keyint=250 / keyint_min=25 / scenecut=40 / intra_refresh=0 / rc_lookahead=50 / rc=crf / mbtree=1 / crf=23.0 / qcomp=0.60 / qpmin=0 / qpmax=69 / qpstep=4 / ip_ratio=1.40 / aq=1:1.00
Default : Yes
Forced : No
Audio
ID : 2
Format : AC-3
Format/Info : Audio Coding 3
Mode extension : CM (complete main)
Format settings, Endianness : Big
Codec ID : A_AC3
Duration : 1h 9mn
Bit rate mode : Constant
Bit rate : 384 Kbps
Channel(s) : 6 channels
Channel positions : Front: L C R, Side: L R, LFE
Sampling rate : 48.0 KHz
Bit depth : 16 bits
Compression mode : Lossy
Stream size : 192 MiB (11%)
Title : English
Language : English
Default : Yes
Forced : No



   Похожие торренты   Торрент   Размер 
В этой теме нет новых непрочитанных сообщений. Футбол. Чемпионат Англии 2014-15. Match of the Day. 02-й тур. Обзор матчей [15.08] (2015) HDTVRip 720p

60 | 3

3.67 ГБ

В этой теме нет новых непрочитанных сообщений. Футбол. Чемпионат Англии 2014-15. Match of the Day. 25-й тур. Обзор матчей [11.02] (2015) HDTVRip 720p

7 | 3

1.99 ГБ

В этой теме нет новых непрочитанных сообщений. Футбол. Чемпионат Англии 2014-15. Match of the Day. 24-й тур. Обзор матчей [07.01-08.02] (2015) HDTVRip 720p

3 | 3

3.8 ГБ

В этой теме нет новых непрочитанных сообщений. Футбол. Чемпионат Англии 2014-15. Match of the Day. 04-й тур. Обзор матчей [29-30.08] (2015) HDTVRip 720p

8 | 2

3.8 ГБ

В этой теме нет новых непрочитанных сообщений. Футбол. Чемпионат Англии 2014-15. Match of the Day. 27-й тур. Обзор матчей [28.02-01.03] (2015) HDTVRip 720p

1 | 2

3.56 ГБ

В этой теме нет новых непрочитанных сообщений. Футбол. Чемпионат Англии 2014-15. Match of the Day. 03-й тур. Обзор матчей [22-23.08] (2015) HDTVRip 720p

53 | 2

3.87 ГБ

В этой теме нет новых непрочитанных сообщений. Футбол. Чемпионат Англии 2014-15. Match of the Day. 28-й тур. Обзор матчей [04.03] (2015) HDTVRip

6 | 2

923.68 МБ




Вы не можете начинать темы
Вы не можете отвечать на сообщения
Вы не можете редактировать свои сообщения
Вы не можете удалять свои сообщения
Вы не можете добавлять вложения

Перейти:  
Для Мосгорсуда, Роскомнадзора и рекламодателей: mosgorsud-torrent[собачка]yandex.ru
 Вход
ppkBB3cker v.2 © 2008-2014 @ PPK
[ Time : 0.033s | 15 Queries | GZIP : Off ]

Торрент трекер RUTOR.IN, Не можете зайти на rutor.org? Какой новый адрес рутор? Какое зеркало рутор? Не работает rutor.org и зеркала? Тогда наш торрент специально для вас. Rutor.in неофициальное зеркало rutor. В случае если у Вас заблокирован rutor или вдруг Вы не можете на него зайти, то Вы без труда сможете скачать бесплатно и без рекламы последние новинки кино, игр, сериалов и прочего у нас, на Rutor.in. Не нужно использовать прокси, чтобы зайти на рутор, достаточно воспользоваться нашим ресурсом. Все новые фильмы, игры, сериалы, книги и музыка за 2013 и 2014 годы через торрент бесплатно. Скачивайте фильмы в хорошем качестве, игры для пк, xbox, playstation без регистрации. У нас вы найдете новые Зарубежные сериалы и Русские сериалы 2013, 2014, 2015 годов. Оставайтесь с нами, качайте любимые фильмы, игры, сериалы, книги и музыку.