img image001 image001 image001 image001 image001 image001 image001 image001 image001 image001 image001 image001 image001 image001 image001

Planets Sun Sun Sun
Статистика раздачи
Автор: Nickolas3434 | Размер: 5.8 ГБ | Добавлен: 12 авг 2015
Раздают: 64    Качают: 12
Скачать торрент
Скачать торрент
Описание торрента

СообщениеДобавлено: 12 авг 2015 

Чемпионат мира по водным видам спорта 2015 Церемония закрытия

Вид спорта: Водные виды спорта
Дата/Год выпуска: 09.08.2015
Язык комментариев: русский|Д. Губерниев
Описание: Столица Татарстана в последние годы становится одним из центров мирового и европейского спорта и нынче в очередной раз подарила участникам всепланетного турнира грандиозные торжества. Церемония закрытия - это всегдашний "праздник со слезами на глазах", но это и зрелище, когда над главной ареной турнира звучит красивейшая музыка, взмывают в небо флаги стран-участниц, сверкают вспышки фотоаппаратов, а небо над городом окрасится множеством иллюминаций. И лишь одно в этот вечер будет навевать некоторую грусть - все-таки это будет церемония прощания...
Автор рипа/записи: kuzmichm2196
качество: HDTV 1080i
формат: TS
Видео: H264; 1920x1080 (16:9); 25.000 fps; ~7 797 Kbps
Аудио: MPEG Audio Version 1 Layer 2, 48000Hz, 2 channels stereo 192 Кбит/сек
01:38:42
Код:
General
ID : 1 (0x1)
Complete name : L:1111111111Чемпионат мира по водным видам спорта 2015 Церемония закрытия.ts
Format : MPEG-TS
File size : 5.80 GiB
Duration : 1h 38mn
Overall bit rate mode : Variable
Overall bit rate : 8 406 Kbps
Video
ID : 2292 (0x8F4)
Menu ID : 1 (0x1)
Format : AVC
Format/Info : Advanced Video Codec
Format profile : High@L4.0
Format settings, CABAC : Yes
Format settings, ReFrames : 4 frames
Codec ID : 27
Duration : 1h 38mn
Bit rate : 7 797 Kbps
Width : 1 920 pixels
Height : 1 080 pixels
Display aspect ratio : 16:9
Frame rate : 25.000 fps
Color space : YUV
Chroma subsampling : 4:2:0
Bit depth : 8 bits
Scan type : MBAFF
Bits/(Pixel*Frame) : 0.150
Stream size : 5.38 GiB (93%)
Audio
ID : 2295 (0x8F7)
Menu ID : 1 (0x1)
Format : MPEG Audio
Format version : Version 1
Format profile : Layer 2
Mode : Joint stereo
Mode extension : Intensity Stereo + MS Stereo
Codec ID : 3
Duration : 1h 38mn
Bit rate mode : Constant
Bit rate : 192 Kbps
Channel(s) : 2 channels
Sampling rate : 48.0 KHz
Compression mode : Lossy
Stream size : 136 MiB (2%)
Language : English




   Похожие торренты   Торрент   Размер 
В этой теме нет новых непрочитанных сообщений. Чемпионат мира по водным видам спорта 2015 Казань (Россия). Церемония открытия [24.07] (2015) HDTVRip 720p | 50 fps

490 | 15

4.07 ГБ

В этой теме нет новых непрочитанных сообщений. Чемпионат мира по водным видам спорта 2017. Водное поло. Женщины. Группа D. 1 тур. Россия - Греция [16.07] (2017) IPTV 1080i

5 | 2

6.61 ГБ

В этой теме нет новых непрочитанных сообщений. ЧМ по водным видам спорта 2013. Церемония закрытия (2013) IPTV

1 | 3

430.36 МБ

В этой теме нет новых непрочитанных сообщений. Чемпионат мира по водным видам спорта 2017. Водное поло. Мужчины. Группа D. 1 тур. Япония - Россия [17.07] (2017) HDTVRip 720p | 50 fps

4 | 3

1.62 ГБ

В этой теме нет новых непрочитанных сообщений. Чемпионат мира по водным видам спорта 2017. Трамплин 1м. Мужчины. Финал [16.07] (2017) IPTV 1080i

3 | 1

4.22 ГБ

В этой теме нет новых непрочитанных сообщений. Чемпионат мира по водным видам спорта 2017. Трамплин 1м. Женщины. Финал [15.07] (2017) IPTV 1080i

9 | 0

3.54 ГБ

В этой теме нет новых непрочитанных сообщений. Чемпионат мира по водным видам спорта 2017. Плавание на открытой воде. Женщины. 10 км [16.07] (2017) IPTV 1080i

3 | 0

8.45 ГБ




Вы не можете начинать темы
Вы не можете отвечать на сообщения
Вы не можете редактировать свои сообщения
Вы не можете удалять свои сообщения
Вы не можете добавлять вложения

Перейти:  
Для Мосгорсуда, Роскомнадзора и рекламодателей: mosgorsud-torrent[собачка]yandex.ru
 Вход
ppkBB3cker v.2 © 2008-2014 @ PPK
[ Time : 2.328s | 16 Queries | GZIP : Off ]

cron