img image001 image001 image001 image001 image001 image001 image001 image001 image001 image001 image001 image001 image001 image001 image001

Planets Sun Sun Sun
Статистика раздачи
Автор: Nickolas3434 | Размер: 3.92 ГБ | Добавлен: 23 сен 2015
Раздают: 38    Качают: 114
Скачать торрент
Скачать торрент
Описание торрента

СообщениеДобавлено: 23 сен 2015 

Match of the Day

Вид спорта: Футбол
Год выпуска: 19.09.2015-20.09.2015
Язык комментариев: Английский
Описание: Выпуск "Match of the Day", посвященный прошедшим матчам 6-го тура АПЛ.
Автор рипа: Tripptek
Качество: HDTVRip
Формат видео: MP4
Видео: AVC, 1280*720, 25 fps, 3492 Kbps
Аудио: AAC, 2 ch, 48,0 KHz, 128 Kbps
1:25:12 + 1:09:40
General
Complete name : F:APLMatch of the Day 2015-2016s.15-16 Week 06Match of the Day - Week 6 - HD.mp4
Format : MPEG-4
Format profile : Base Media
Codec ID : isom
File size : 2.16 GiB
Duration : 1h 25mn
Overall bit rate mode : Variable
Overall bit rate : 3 623 Kbps
Writing application : Lavf54.63.104
Video
ID : 1
Format : AVC
Format/Info : Advanced Video Codec
Format profile : High@L3.2
Format settings, CABAC : Yes
Format settings, ReFrames : 2 frames
Codec ID : avc1
Codec ID/Info : Advanced Video Coding
Duration : 1h 25mn
Bit rate : 3 492 Kbps
Width : 1 280 pixels
Height : 720 pixels
Display aspect ratio : 16:9
Frame rate mode : Constant
Frame rate : 25.000 fps
Color space : YUV
Chroma subsampling : 4:2:0
Bit depth : 8 bits
Scan type : Progressive
Bits/(Pixel*Frame) : 0.152
Stream size : 2.08 GiB (96%)
Audio
ID : 2
Format : AAC
Format/Info : Advanced Audio Codec
Format profile : LC
Codec ID : 40
Duration : 1h 25mn
Bit rate mode : Variable
Bit rate : 125 Kbps
Maximum bit rate : 128 Kbps
Channel(s) : 2 channels
Channel positions : Front: L R
Sampling rate : 48.0 KHz
Compression mode : Lossy
Stream size : 76.4 MiB (3%)
Language : unk
General
Complete name : F:APLMatch of the Day 2015-2016s.15-16 Week 06Match of the Day 2 - Week 06 - HD.mp4
Format : MPEG-4
Format profile : Base Media
Codec ID : isom
File size : 1.76 GiB
Duration : 1h 9mn
Overall bit rate mode : Variable
Overall bit rate : 3 622 Kbps
Writing application : Lavf54.63.104
Video
ID : 1
Format : AVC
Format/Info : Advanced Video Codec
Format profile : High@L3.2
Format settings, CABAC : Yes
Format settings, ReFrames : 2 frames
Codec ID : avc1
Codec ID/Info : Advanced Video Coding
Duration : 1h 9mn
Bit rate : 3 491 Kbps
Width : 1 280 pixels
Height : 720 pixels
Display aspect ratio : 16:9
Frame rate mode : Constant
Frame rate : 25.000 fps
Color space : YUV
Chroma subsampling : 4:2:0
Bit depth : 8 bits
Scan type : Progressive
Bits/(Pixel*Frame) : 0.152
Stream size : 1.70 GiB (96%)
Audio
ID : 2
Format : AAC
Format/Info : Advanced Audio Codec
Format profile : LC
Codec ID : 40
Duration : 1h 9mn
Bit rate mode : Variable
Bit rate : 125 Kbps
Maximum bit rate : 128 Kbps
Channel(s) : 2 channels
Channel positions : Front: L R
Sampling rate : 48.0 KHz
Compression mode : Lossy
Stream size : 62.5 MiB (3%)
Language : unk



   Похожие торренты   Торрент   Размер 
В этой теме нет новых непрочитанных сообщений. Футбол. Чемпионат Англии 2014-15. Match of the Day. 25-й тур. Обзор матчей [11.02] (2015) HDTVRip 720p

7 | 3

1.99 ГБ

В этой теме нет новых непрочитанных сообщений. Футбол. Чемпионат Англии 2013-14. Match of the Day. 20-й тур. Обзор матчей [01.01] (2015) HDTVRip 720p

122 | 24

2.37 ГБ

В этой теме нет новых непрочитанных сообщений. Футбол. Чемпионат Англии 2015-16. Match of the Day. 06-й тур. Обзор матчей [24-25.09] (2016) HDTVRip 720p

10 | 2

3 ГБ

В этой теме нет новых непрочитанных сообщений. Футбол. Чемпионат Англии 2013-14. Match of the Day. 21-й тур. Обзор матчей [10.01] (2015) HDTVRip 720p

50 | 2

1.98 ГБ

В этой теме нет новых непрочитанных сообщений. Футбол. Чемпионат Англии 2014-15. Match of the Day. 24-й тур. Обзор матчей [07.01-08.02] (2015) HDTVRip 720p

3 | 3

3.8 ГБ

В этой теме нет новых непрочитанных сообщений. Футбол. Чемпионат Англии 2014-15. Match of the Day. 01-й тур. Обзор матчей [08.08-09.08] (2015) HDTVRip 720p

53 | 8

3.81 ГБ

В этой теме нет новых непрочитанных сообщений. Футбол. Чемпионат Англии 2014-15. Match of the Day. 04-й тур. Обзор матчей [29-30.08] (2015) HDTVRip 720p

8 | 2

3.8 ГБ




Вы не можете начинать темы
Вы не можете отвечать на сообщения
Вы не можете редактировать свои сообщения
Вы не можете удалять свои сообщения
Вы не можете добавлять вложения

Перейти:  
Для Мосгорсуда, Роскомнадзора и рекламодателей: mosgorsud-torrent[собачка]yandex.ru
 Вход
ppkBB3cker v.2 © 2008-2014 @ PPK
[ Time : 0.032s | 17 Queries | GZIP : On ]

Торрент трекер RUTOR.IN, Не можете зайти на rutor.org? Какой новый адрес рутор? Какое зеркало рутор? Не работает rutor.org и зеркала? Тогда наш торрент специально для вас. Rutor.in неофициальное зеркало rutor. В случае если у Вас заблокирован rutor или вдруг Вы не можете на него зайти, то Вы без труда сможете скачать бесплатно и без рекламы последние новинки кино, игр, сериалов и прочего у нас, на Rutor.in. Не нужно использовать прокси, чтобы зайти на рутор, достаточно воспользоваться нашим ресурсом. Все новые фильмы, игры, сериалы, книги и музыка за 2013 и 2014 годы через торрент бесплатно. Скачивайте фильмы в хорошем качестве, игры для пк, xbox, playstation без регистрации. У нас вы найдете новые Зарубежные сериалы и Русские сериалы 2013, 2014, 2015 годов. Оставайтесь с нами, качайте любимые фильмы, игры, сериалы, книги и музыку.