img image001 image001 image001 image001 image001 image001 image001 image001 image001 image001 image001 image001 image001 image001 image001

Planets Sun Sun Sun
Статистика раздачи
Автор: Nickolas3434 | Размер: 11.16 ГБ | Добавлен: 03 окт 2015
Раздают: 38    Качают: 11
Скачать торрент
Скачать торрент
Описание торрента

СообщениеДобавлено: 03 окт 2015 


Информация о фильме
Название: Добиваясь вершины
Оригинальное название: Hitting the Apex
Страна: США
Студия: First Movie Company
Жанр: документальный, спорт
Год выпуска: 2015
Продолжительность: 02:18:20
Перевод: Субтитры
Cубтитры: Rus, Eng
Оригинальная аудиодорожка: английский
Режиссер: Марк Нил / Mark Neale
В ролях: Хорхе Лоренсо, Брэд Питт, Jose Manuel Lorenzo, Marc Marquez, Dani Pedrosa, Грациано Росси, Валентино Росси, Marco Simoncelli, Paolo Simoncelli
Описание: История шести чемпионов - шести из самых быстрых мотогонщиков которые когда-либо видел мир, - и о судьбах, которые ожидали их на пике спорта. Это рассказ о том, что поставлено на карту для всех из них: всё, что можно выиграть и всё, что можно потерять, когда вы гонетесь за славой в более чем 200 миль в час - на мотоцикле.

Тип релиза: BDRip 720p
Контейнер: MKV
Видео: MPEG-4 AVC, 10.7 Mбит/с, 1280x720, 23,976 fps
Аудио: Eng, AC3, 640 kb/s (6 ch), 48 kHz
Формат субтитров: softsub (SRT)
x264 [info]: frame I:1514 Avg QP:17.61 size:126931
x264 [info]: frame P:47907 Avg QP:18.70 size: 80146
x264 [info]: frame B:149588 Avg QP:20.10 size: 48674
Format : Matroska
Format version : Version 4 / Version 2
File size : 11.2 GiB
Duration : 2h 18mn
Overall bit rate : 11.5 Mbps
Movie name : Добиваясь вершины. (Tonik)
Encoded date : UTC 2015-10-01 18:09:15
Writing application : mkvmerge v7.1.0 ('Good Love') 64bit built on Jul 27 2014 13:06:55
Writing library : libebml v1.3.0 + libmatroska v1.4.1
_STATISTICS_WRITING_APP : mkvmerge v7.1.0 ('Good Love') 64bit built on Jul 27 2014 13:06:55
_STATISTICS_WRITING_DATE_UTC : 2015-10-01 18:09:15
_STATISTICS_TAGS : BPS DURATION NUMBER_OF_FRAMES NUMBER_OF_BYTES
DURATION : 02:17:34.830000000
NUMBER_OF_FRAMES : 1779
NUMBER_OF_BYTES : 140789
Video
ID : 1
Format : AVC
Format/Info : Advanced Video Codec
Format profile : High@L4.1
Format settings, CABAC : Yes
Format settings, ReFrames : 9 frames
Codec ID : V_MPEG4/ISO/AVC
Duration : 2h 18mn
Bit rate : 10.7 Mbps
Width : 1 280 pixels
Height : 720 pixels
Display aspect ratio : 16:9
Frame rate mode : Constant
Frame rate : 23.976 fps
Color space : YUV
Chroma subsampling : 4:2:0
Bit depth : 8 bits
Scan type : Progressive
Bits/(Pixel*Frame) : 0.483
Stream size : 10.3 GiB (92%)
Writing library : x264 core 148 r2597kMod e86f3a1
Encoding settings : cabac=1 / ref=9 / deblock=1:-3:-3 / analyse=0x3:0x133 / me=umh / subme=10 / psy=1 / fade_compensate=0.00 / psy_rd=1.05:0.00 / mixed_ref=1 / me_range=32 / chroma_me=1 / trellis=2 / 8x8dct=1 / cqm=0 / deadzone=21,11 / fast_pskip=0 / chroma_qp_offset=-2 / threads=6 / lookahead_threads=1 / sliced_threads=0 / nr=0 / decimate=0 / interlaced=0 / bluray_compat=0 / constrained_intra=0 / fgo=0 / bframes=8 / b_pyramid=2 / b_adapt=2 / b_bias=0 / direct=3 / weightb=1 / open_gop=0 / weightp=2 / keyint=250 / keyint_min=23 / scenecut=40 / intra_refresh=0 / rc_lookahead=60 / rc=crf / mbtree=0 / crf=17.0000 / qcomp=0.70 / qpmin=0 / qpmax=69 / qpstep=4 / vbv_maxrate=62500 / vbv_bufsize=78125 / crf_max=0.0 / nal_hrd=none / filler=0 / ip_ratio=1.30 / pb_ratio=1.20 / aq=1:0.80
Language : English
Default : Yes
Forced : No
_STATISTICS_WRITING_APP : mkvmerge v7.1.0 ('Good Love') 64bit built on Jul 27 2014 13:06:55
_STATISTICS_WRITING_DATE_UTC : 2015-10-01 18:09:15
_STATISTICS_TAGS : BPS DURATION NUMBER_OF_FRAMES NUMBER_OF_BYTES
DURATION : 02:18:20.334000000
NUMBER_OF_FRAMES : 199009
NUMBER_OF_BYTES : 11312797259
Audio
ID : 2
Format : AC-3
Format/Info : Audio Coding 3
Mode extension : CM (complete main)
Format settings, Endianness : Big
Codec ID : A_AC3
Duration : 2h 18mn
Bit rate mode : Constant
Bit rate : 640 Kbps
Channel(s) : 6 channels
Channel positions : Front: L C R, Side: L R, LFE
Sampling rate : 48.0 KHz
Bit depth : 16 bits
Compression mode : Lossy
Stream size : 633 MiB (6%)
Language : English
Default : Yes
Forced : No
Text #1
ID : 3
Format : UTF-8
Codec ID : S_TEXT/UTF8
Codec ID/Info : UTF-8 Plain Text
Language : Russian
Default : Yes
Forced : No
Text #2
ID : 4
Format : UTF-8
Codec ID : S_TEXT/UTF8
Codec ID/Info : UTF-8 Plain Text
Language : English
Default : No
Forced : No
Menu
00:00:00.000 : en:00:00:00.000
00:09:20.685 : en:00:09:20.685
00:21:49.517 : en:00:21:49.517
00:32:53.680 : en:00:32:53.680
00:42:11.863 : en:00:42:11.863
00:56:29.136 : en:00:56:29.136
01:07:56.739 : en:01:07:56.739
01:18:14.356 : en:01:18:14.356
01:29:12.389 : en:01:29:12.389
01:41:38.259 : en:01:41:38.259
01:53:09.658 : en:01:53:09.658
02:08:02.258 : en:02:08:02.258





   Похожие торренты   Торрент   Размер 
В этой теме нет новых непрочитанных сообщений. Вершины мира / Les Montagnes di Monde [01-20] (2010) HDTVRip 720p от ExKinoRay

76 | 30

22.54 ГБ

В этой теме нет новых непрочитанных сообщений. Napalm Death - Apex Predator - Easy Meat (2015) MP3

62 | 12

94.78 МБ

В этой теме нет новых непрочитанных сообщений. Русская стена вершины К2 (2008) DVDRip

5 | 5

1.25 ГБ

В этой теме нет новых непрочитанных сообщений. Призраки покидают вершины (1955) DVDRip

22 | 7

1.24 ГБ

В этой теме нет новых непрочитанных сообщений. Призраки покидают вершины (1955) VHSRip- от New-Team

9 | 3

745.36 МБ

В этой теме нет новых непрочитанных сообщений. Призраки покидают вершины (1955) VHSRip- от New-Team

16 | 1

1.09 ГБ

В этой теме нет новых непрочитанных сообщений. Призраки покидают вершины (1955) VHSRip- от New-Team

1 | 1

1.09 ГБ




Вы не можете начинать темы
Вы не можете отвечать на сообщения
Вы не можете редактировать свои сообщения
Вы не можете удалять свои сообщения
Вы не можете добавлять вложения

Перейти:  
Для Мосгорсуда, Роскомнадзора и рекламодателей: mosgorsud-torrent[собачка]yandex.ru
 Вход
ppkBB3cker v.2 © 2008-2014 @ PPK
[ Time : 0.055s | 15 Queries | GZIP : Off ]

Торрент трекер RUTOR.IN, Не можете зайти на rutor.org? Какой новый адрес рутор? Какое зеркало рутор? Не работает rutor.org и зеркала? Тогда наш торрент специально для вас. Rutor.in неофициальное зеркало rutor. В случае если у Вас заблокирован rutor или вдруг Вы не можете на него зайти, то Вы без труда сможете скачать бесплатно и без рекламы последние новинки кино, игр, сериалов и прочего у нас, на Rutor.in. Не нужно использовать прокси, чтобы зайти на рутор, достаточно воспользоваться нашим ресурсом. Все новые фильмы, игры, сериалы, книги и музыка за 2013 и 2014 годы через торрент бесплатно. Скачивайте фильмы в хорошем качестве, игры для пк, xbox, playstation без регистрации. У нас вы найдете новые Зарубежные сериалы и Русские сериалы 2013, 2014, 2015 годов. Оставайтесь с нами, качайте любимые фильмы, игры, сериалы, книги и музыку.