img image001 image001 image001 image001 image001 image001 image001 image001 image001 image001 image001 image001 image001 image001 image001

Planets Sun Sun Sun
Статистика раздачи
Автор: Nickolas3434 | Размер: 10.02 ГБ | Добавлен: 25 окт 2015
Раздают: 4    Качают: 0
Скачать торрент
Скачать торрент
Описание торрента

СообщениеДобавлено: 25 окт 2015 



Зенит – Анжи





Год выпуска: 24.10.2015

Вид спорта:
Футбол
Продолжительность:
00:46:33, 00:47:36
Комментарий:
Владимир Стогниенко (аудио - 1), Геннадий Орлов (аудио - 2)
Канал: НТВ+
Язык комментария: Русский
Описание:
24 октября. С.Петербург. Стадион "Петровский". 16970 зрителей.
Судья - Владимир Москалев (Воронеж).
Качество: HDTV 1080p
Формат: MKV
Видео: AVC, 14,6 Мбит/сек, 1920x1080, 25.000 кадр/сек
Аудио 1: MP2 LC, 192 Кбит/сек, 2 канала, 48 КГц - Стогниенко
Аудио 2: MP2 LC, 192 Кбит/сек, 2 канала, 48 КГц - Орлов




5:1





Автор записи/рипа: Nikolay/waPBX

Общее
Уникальный идентификатор : 210204306355797241722527918140372000014 (0x9E23E0764A80A6A484CAA6118D039D0E)
Полное имя : Зенит – Анжи (24.10.2015)Зенит – Анжи. 1-й Тайм.mkv
Формат : Matroska
Версия формата : Version 4 / Version 2
Размер файла : 4,96 Гбайт
Продолжительность : 46 м.
Общий поток : 15,3 Мбит/сек
Название фильма : Rip by waPBX
Дата кодирования : UTC 2015-10-24 18:50:00
Программа кодирования : mkvmerge v8.3.0 ('Over the Horizon') 64bit
Библиотека кодирования : libebml v1.3.1 + libmatroska v1.4.2
DURATION : 00:46:33.840000000
NUMBER_OF_FRAMES : 116410
NUMBER_OF_BYTES : 67052160
_STATISTICS_WRITING_APP : mkvmerge v8.3.0 ('Over the Horizon') 64bit
_STATISTICS_WRITING_DATE_UTC : 2015-10-24 18:50:00
_STATISTICS_TAGS : BPS DURATION NUMBER_OF_FRAMES NUMBER_OF_BYTES
Видео
Идентификатор : 1
Формат : AVC
Формат/Информация : Advanced Video Codec
Профиль формата : Main@L4
Параметр CABAC формата : Да
Параметр ReFrames формата : 4 кадра
Идентификатор кодека : V_MPEG4/ISO/AVC
Продолжительность : 46 м.
Битрейт : 14,6 Мбит/сек
Ширина : 1920 пикселей
Высота : 1080 пикселей
Соотношение сторон : 16:9
Режим частоты кадров : Постоянный
Частота кадров : 25,000 кадров/сек
Стандарт вещания : Component
Цветовое пространство : YUV
Субдискретизация насыщенности : 4:2:0
Битовая глубина : 8 бит
Тип развёртки : Чересстрочная
Порядок развёртки : Верхнее поле первое
Бит/(Пиксели*Кадры) : 0.281
Размер потока : 4,74 Гбайт (95%)
Default : Нет
Forced : Нет
Цветовой диапазон : Limited
Основные цвета : BT.709
Характеристики трансфера : BT.709
Коэффициенты матрицы : BT.709
Аудио #1
Идентификатор : 2
Формат : MPEG Audio
Версия формата : Version 1
Профиль формата : Layer 2
Идентификатор кодека : A_MPEG/L2
Идентификатор кодека/Подсказка : MP2
Продолжительность : 46 м.
Вид битрейта : Постоянный
Битрейт : 192 Кбит/сек
Каналы : 2 канала
Частота : 48,0 КГц
Метод сжатия : С потерями
Размер потока : 63,9 Мбайт (1%)
Заголовок : Владимир Стогниенко
Язык : Russian
Default : Нет
Forced : Нет
Аудио #2
Идентификатор : 3
Формат : MPEG Audio
Версия формата : Version 1
Профиль формата : Layer 2
Идентификатор кодека : A_MPEG/L2
Идентификатор кодека/Подсказка : MP2
Продолжительность : 46 м.
Вид битрейта : Постоянный
Битрейт : 192 Кбит/сек
Каналы : 2 канала
Частота : 48,0 КГц
Метод сжатия : С потерями
Размер потока : 63,9 Мбайт (1%)
Заголовок : Геннадий Орлов
Язык : Russian
Default : Нет
Forced : Нет



   Похожие торренты   Торрент   Размер 
В этой теме нет новых непрочитанных сообщений. Футбол. Чемпионат России 2015-16. 13-й тур. Зенит–Анжи [24.10] (2015) HDTVRip-AVC от waPBX

4 | 0

1.53 ГБ

В этой теме нет новых непрочитанных сообщений. Футбол. Чемпионат России 2015-2016. 13 тур. Зенит - Анжи [24.10] (2015) HDTVRip

7 | 0

1.45 ГБ

В этой теме нет новых непрочитанных сообщений. Футбол. Чемпионат России 2015-2016. 13 тур. Зенит - Анжи [24.10] (2015) HDTVRip 720р | 50 fps

13 | 4

3.83 ГБ

В этой теме нет новых непрочитанных сообщений. Футбол. Чемпионат России 2014-2015. 13-й тур. Зенит – Терек [08.11] (2014) HDTV 1080i от waPBX

8 | 287

11.47 ГБ

В этой теме нет новых непрочитанных сообщений. Футбол. Чемпионат России 2014-2015 (9 тур) Зенит (Санкт-Петербург) - Спартак (Москва) [27.09] (2014) HDTV 1080р от waPBX

17 | 6

9.71 ГБ

В этой теме нет новых непрочитанных сообщений. Футбол. Чемпионат России 2015-16 (10-й тур) Спартак–Зенит [26.09] (2015) HDTVRip 720p от waPBX

80 | 21

3.8 ГБ

В этой теме нет новых непрочитанных сообщений. Футбол. Чемпионат России 2013-2014. 24-й тур. Зенит (Санкт-Петербург) - Рубин (Казань) [06.04] (2014) HDTV 1080p от waPBX

41 | 12

6.46 ГБ




Вы не можете начинать темы
Вы не можете отвечать на сообщения
Вы не можете редактировать свои сообщения
Вы не можете удалять свои сообщения
Вы не можете добавлять вложения

Перейти:  
Для Мосгорсуда, Роскомнадзора и рекламодателей: mosgorsud-torrent[собачка]yandex.ru
 Вход
ppkBB3cker v.2 © 2008-2014 @ PPK
[ Time : 0.039s | 16 Queries | GZIP : Off ]

cron