img image001 image001 image001 image001 image001 image001 image001 image001 image001 image001 image001 image001 image001 image001 image001

Planets Sun Sun Sun
Статистика раздачи
Автор: Nickolas3434 | Размер: 223.39 МБ | Добавлен: 02 ноя 2015
Раздают: 64    Качают: 3
Скачать торрент
Скачать торрент
Описание торрента

СообщениеДобавлено: 02 ноя 2015 


Информация о фильме
Название: Сахарный диабет и сердечно-сосудистые заболевания: фокус на коррекцию нарушений липидного обмена
Год выхода: 2012
Жанр: Кардиология/Эндокринология/Сахарный диабет/Дислипидемия/Метаболический синдром
Описание: Сердечно-сосудистые заболевания (ССЗ), распространенность которых среди пациентов с сахарным диабетом (СД) 2 типа, составляющим около 90 % всей заболеваемости СД, более чем в 4 раза превышает таковую у лиц без данного заболевания, являются причиной смерти 70–80% больных. Столь высокая распространенность сердечно-сосудистой патологии среди пациентов с СД 2 типа обусловлена сочетанием как «классических», присущих популяции в целом, так и связанных именно с СД факторов риска развития атеросклероза. Среди первых наибольшую значимость представляют нарушения липидного обмена, которые, по данным литературы, диагностируются у 50–97% пациентов, а также артериальная гипертензия, ожирение, курение и повышенная активность свертывающей системы крови. Среди вторых — инсулинорезистентность, гиперинсулинемия и гипергликемия . В ходе исследования UK Prospective Diabetes Study (UKPDS) было показано, что достижение нормогликемии достоверно снижает риск развития микроваскулярных, но не макроваскулярных осложнений СД 2 типа, в то время как снижение артериального давления достоверно уменьшает частоту развития макрососудистых катастроф, а повышение уровня холестерина достоверно ее увеличивает [15]. Таким образом, наиболее оправданной стратегией ведения пациентов с СД 2 типа является стратегия АВС, предложенная Национальной образовательной программой по диабету: диабетологи и больные СД должны уделять внимание не только контролю гликемии («А» — HbA1c) и артериального давления («В» — blood pressure), но и уровню липидов крови («С» — cholesterol) .
Основными характеристиками дислипидемии при СД 2 типа являются повышение уровня триглицеридов в составе липопротеинов очень низкой плотности (ЛПОНП) и снижение уровня холестерина липопротеинов высокой плотности (ХС ЛПВП). Концентрация холестерина липопротеинов низкой плотности (ХС ЛПНП) у больных СД практически не отличается от таковой у лиц без данного заболевания, однако у пациентов с СД 2 типа преобладает фракция мелких плотных ЛПНП, обладающих повышенной атерогенностью вследствие высокой способности к окислению:

Количественные изменения липидного спектра могут встречаться изолированно, но чаще они сочетаются и носят название липидной триады или атерогенной дислипидемии. Основной причиной гипертриглицеридемии при СД 2 типа является низкая чувствительность висцеральной жировой ткани к антилиполитическому действию инсулина, что ведет к повышенному липолизу, поступлению большого количества свободных жирных кислот в портальный кровоток и, в сочетании с гиперинсулинемией, повышению синтеза триглицеридов и ЛПОНП печенью. Кроме этого, у больных СД 2 типа при гипергликемии снижена активность эндотелиальной липопротеинлипазы, ответственной за катаболизм триглицеридов и ЛПОНП, что усугубляет данное нарушение. Снижение уровня ХС ЛПВП при СД 2 типа обусловлено повышением активности печеночной липопротеинлипазы и ускоренным катаболизмом ХС ЛПВП. Помимо количественных, при СД 2 типа имеют место также качественные изменения липидного спектра: при гипергликемии возрастает доля гликированных ЛПНП, в том числе мелких плотных ЛПНП, обладающих повышенной атерогенностью в связи с высокой способностью к окислению и накоплению в артериальной стенке, а также к замедленному клиренсу и длительному нахождению в плазме. В свою очередь, гликирование и окисление ЛПВП также ведет к снижению их антиатерогенных свойств. Развитие у пациентов диабетической нефропатии усугубляет уже имеющееся повышение уровня триглицеридов и снижение уровня ХС ЛПВП. Изменение любого показателя липидного спектра ведет к увеличению сердечно-сосудистого риска у пациентов с СД 2 типа (табл. 1), он значительно возрастает при комбинированной дислипидемии

Общее
Полное имя : C:UsersUserDesktopДислипидемия и метаболический синдром. Мамедов М.Н. (Москва). 2012.mp4
Формат : MPEG-4
Профиль формата : Base Media / Version 2
Идентификатор кодека : mp42
Размер файла : 223 Мбайт
Продолжительность : 24 м.
Режим общего битрейта : Переменный
Общий поток : 1252 Кбит/сек
Дата кодирования : UTC 2013-01-19 10:28:09
Дата пометки : UTC 2013-01-19 10:28:09
Видео
Идентификатор : 1
Формат : AVC
Формат/Информация : Advanced Video Codec
Профиль формата : High@L3.1
Параметр CABAC формата : Да
Параметр ReFrames формата : 4 кадра
Идентификатор кодека : avc1
Идентификатор кодека/Информация : Advanced Video Coding
Продолжительность : 24 м.
Битрейт : 1090 Кбит/сек
Ширина : 1280 пикселей
Высота : 720 пикселей
Соотношение сторон : 16:9
Режим частоты кадров : Постоянный
Частота кадров : 25,000 кадров/сек
Цветовое пространство : YUV
Субдискретизация насыщенности : 4:2:0
Битовая глубина : 8 бит
Тип развёртки : Прогрессивная
Бит/(Пиксели*Кадры) : 0.047
Размер потока : 195 Мбайт (87%)
Библиотека кодирования : x264 core 129 r2245 bc13772
Настройки программы : cabac=1 / ref=3 / deblock=1:0:0 / analyse=0x3:0x113 / me=hex / subme=7 / psy=1 / psy_rd=1.00:0.00 / mixed_ref=1 / me_range=16 / chroma_me=1 / trellis=1 / 8x8dct=1 / cqm=0 / deadzone=21,11 / fast_pskip=1 / chroma_qp_offset=-2 / threads=12 / lookahead_threads=2 / sliced_threads=0 / nr=0 / decimate=1 / interlaced=0 / bluray_compat=0 / constrained_intra=0 / bframes=3 / b_pyramid=2 / b_adapt=1 / b_bias=0 / direct=1 / weightb=1 / open_gop=0 / weightp=2 / keyint=75 / keyint_min=25 / scenecut=40 / intra_refresh=0 / rc_lookahead=40 / rc=2pass / mbtree=1 / bitrate=1090 / ratetol=1.0 / qcomp=0.60 / qpmin=5 / qpmax=69 / qpstep=4 / cplxblur=20.0 / qblur=0.5 / vbv_maxrate=3750 / vbv_bufsize=12500 / nal_hrd=none / ip_ratio=1.40 / aq=1:1.00
Дата кодирования : UTC 2013-01-19 10:28:09
Дата пометки : UTC 2013-01-19 10:28:09
Аудио
Идентификатор : 2
Формат : AAC
Формат/Информация : Advanced Audio Codec
Профиль формата : LC
Идентификатор кодека : 40
Продолжительность : 24 м.
Продолжительность оригинала : 24 м.
Вид битрейта : Переменный
Битрейт : 157 Кбит/сек
Каналы : 2 канала
Расположение каналов : Front: L R
Частота : 48,0 КГц
Метод сжатия : С потерями
Задержка видео : 37 мс.
Размер потока : 28,1 Мбайт (13%)
Размер потока оригинала : 28,1 Мбайт (13%)
Дата кодирования : UTC 2013-01-19 10:28:09
Дата пометки : UTC 2013-01-19 10:28:09

Страна: Россия
Студия: ФГБУ Государственный научно-исследовательский центр профилактической медицины Минздрава РФ
Продолжительность: 00:24:57
Перевод: не требуется
Файл
Кодек: AVC
Качество: IPTVRip 720 p
Видео: 1280 Х 720 px,16:9,1090 Кбит/сек, 25 кадров/сек
Звук: AAC,157 Кбит/сек,48,0 КГц,2 канала



   Похожие торренты   Торрент   Размер 
В этой теме нет новых непрочитанных сообщений. Биохимические маркеры метаболических нарушений ассоциированных с дислипидемией. (2012) IPTVRip 720p

28 | 0

393.44 МБ

В этой теме нет новых непрочитанных сообщений. В.Ю.Мареев.Коррекция множественных факторов риска -путь успешного лечения АГ, ИБС, метаболических нарушений (2012) IPTVRip

37 | 2

689.91 МБ

В этой теме нет новых непрочитанных сообщений. Ранние нарушения углеводного обмена (2013) IPTVRip 720p

123 | 3

245.8 МБ

В этой теме нет новых непрочитанных сообщений. Сахарный Человек - Сахарный Человек (2015) MP3

57 | 4

112.87 МБ

В этой теме нет новых непрочитанных сообщений. Без обмана: Фокус с креветками [08.04] (2013) IPTVRip

26 | 5

518.1 МБ

В этой теме нет новых непрочитанных сообщений. Блокада РААС, как основа терапии кардиологических больных: фокус на фозиноприл (2015) IPTVRip 720p

15 | 0

741.76 МБ

В этой теме нет новых непрочитанных сообщений. Йога-терапия: Профилактика и лечение сердечно-сосудистых заболеваний (2013) DVD-5

93 | 2

2.82 ГБ




Вы не можете начинать темы
Вы не можете отвечать на сообщения
Вы не можете редактировать свои сообщения
Вы не можете удалять свои сообщения
Вы не можете добавлять вложения

Перейти:  
Для Мосгорсуда, Роскомнадзора и рекламодателей: mosgorsud-torrent[собачка]yandex.ru
 Вход
ppkBB3cker v.2 © 2008-2014 @ PPK
[ Time : 0.047s | 15 Queries | GZIP : Off ]

Торрент трекер RUTOR.IN, Не можете зайти на rutor.org? Какой новый адрес рутор? Какое зеркало рутор? Не работает rutor.org и зеркала? Тогда наш торрент специально для вас. Rutor.in неофициальное зеркало rutor. В случае если у Вас заблокирован rutor или вдруг Вы не можете на него зайти, то Вы без труда сможете скачать бесплатно и без рекламы последние новинки кино, игр, сериалов и прочего у нас, на Rutor.in. Не нужно использовать прокси, чтобы зайти на рутор, достаточно воспользоваться нашим ресурсом. Все новые фильмы, игры, сериалы, книги и музыка за 2013 и 2014 годы через торрент бесплатно. Скачивайте фильмы в хорошем качестве, игры для пк, xbox, playstation без регистрации. У нас вы найдете новые Зарубежные сериалы и Русские сериалы 2013, 2014, 2015 годов. Оставайтесь с нами, качайте любимые фильмы, игры, сериалы, книги и музыку.
cron