img image001 image001 image001 image001 image001 image001 image001 image001 image001 image001 image001 image001 image001 image001 image001

Planets Sun Sun Sun
Статистика раздачи
Автор: Nickolas3434 | Размер: 3.18 ГБ | Добавлен: 23 ноя 2015
Раздают: 20    Качают: 5
Скачать торрент
Скачать торрент
Описание торрента

СообщениеДобавлено: 23 ноя 2015 



Чемпионат Испании 2015-2016 / 12-й тур
Реал Мадрид - Барселона



Вид спорта: Футбол
Год выпуска: 2015


Продолжительность: 01:47:02
Комментарий: русский (Константин Генич, Василий Уткин)


Описание:
21 ноября. Мадрид. Стадион "Сантьяго Бернабеу".
Судья - Фернандес Борбалан (Альмерия).


Качество видео: HDTVRip-AVC 720p
Формат видео: MKV


Файл
Видео: AVC, 4058 Кбит/сек, 1280x720, 50.000 кадр/сек
Аудио: AC3, 192 Кбит/сек, 2 канала, 48 КГц - rus
Реал Мадрид: Основной: Кейлор Навас, Данило, Марсело, Рафаэль Варан, Серхио Рамос, Тони Кроос, Хамес Родригес, Лука Модрич, Гарет Бэйл, Криштиану Роналду, Карим Бензема, Тренер: Рафаэль Бенитес, Запасные: Иско, Даниэль Карвахаль,
Барселона: Основной: Клаудио Браво, Жорди Альба, Жерар Пике, Даниэл Алвес, Хавьер Маскерано, Серхио Бускетс, Иван Ракитич, Андрес Иньеста, Серхи Роберто, Луис Суарес, Неймар, Тренер: Луис Энрике, Запасные: Жереми Матье, Лионель Месси, Мунир Эль-Хаддади

0:4




Автор записи/рипа: Striker
Общее
Уникальный идентификатор : 213168294033902000364309380970961401483 (0xA05EB8565606F8AEAB6DD2D14A9B768B)
Полное имя :LaLiga.2015-2016.12tour.Real.Madrid-Barcelona.HDTVRip.720p.mkv
Формат : Matroska
Версия формата : Version 4 / Version 2
Размер файла : 3,18 Гбайт
Продолжительность : 1 ч. 47 м.
Общий поток : 4254 Кбит/сек
Дата кодирования : UTC 2015-11-21 19:16:21
Программа кодирования : mkvmerge v7.3.0 ('Nouages') 32bit built on Oct 22 2014 18:44:01
Библиотека кодирования : libebml v1.3.0 + libmatroska v1.4.1
Видео
Идентификатор : 1
Формат : AVC
Формат/Информация : Advanced Video Codec
Профиль формата : High@L4.1
Параметр CABAC формата : Да
Параметр ReFrames формата : 4 кадра
Параметр GOP формата : M=2, N=15
Идентификатор кодека : V_MPEG4/ISO/AVC
Продолжительность : 1 ч. 47 м.
Битрейт : 3977 Кбит/сек
Ширина : 1280 пикселей
Высота : 720 пикселей
Соотношение сторон : 16:9
Режим частоты кадров : Постоянный
Частота кадров : 50,000 кадров/сек
Цветовое пространство : YUV
Субдискретизация насыщенности : 4:2:0
Битовая глубина : 8 бит
Тип развёртки : Прогрессивная
Бит/(Пиксели*Кадры) : 0.086
Размер потока : 2,97 Гбайт (93%)
Default : Да
Forced : Нет
Цветовой диапазон : Limited
Основные цвета : BT.709
Характеристики трансфера : BT.709
Коэффициенты матрицы : BT.709
DURATION : 01:47:02.980000000
NUMBER_OF_FRAMES : 321149
NUMBER_OF_BYTES : 3258350831
_STATISTICS_WRITING_APP : mkvmerge v7.3.0 ('Nouages') 32bit built on Oct 22 2014 18:44:01
_STATISTICS_WRITING_DATE_UTC : 2015-11-21 19:16:21
_STATISTICS_TAGS : BPS DURATION NUMBER_OF_FRAMES NUMBER_OF_BYTES
Аудио
Идентификатор : 2
Формат : AC-3
Формат/Информация : Audio Coding 3
Расширение режима : CM (complete main)
Параметр Endianness формата : Big
Идентификатор кодека : A_AC3
Продолжительность : 1 ч. 47 м.
Вид битрейта : Постоянный
Битрейт : 192 Кбит/сек
Каналы : 2 канала
Расположение каналов : Front: L R
Частота : 48,0 КГц
Метод сжатия : С потерями
Размер потока : 147 Мбайт (5%)
Язык : Russian
Default : Да
Forced : Нет
DURATION : 01:47:02.984000000
NUMBER_OF_FRAMES : 200717
NUMBER_OF_BYTES : 154150656
_STATISTICS_WRITING_APP : mkvmerge v7.3.0 ('Nouages') 32bit built on Oct 22 2014 18:44:01
_STATISTICS_WRITING_DATE_UTC : 2015-11-21 19:16:21
_STATISTICS_TAGS : BPS DURATION NUMBER_OF_FRAMES NUMBER_OF_BYTES



   Похожие торренты   Торрент   Размер 
В этой теме нет новых непрочитанных сообщений. Футбол. Чемпионат Испании 2015-2016. 12-й тур. Реал Мадрид — Барселона [21.11] (2015) HDTVRip 720p

298 | 33

2.76 ГБ

В этой теме нет новых непрочитанных сообщений. Футбол. Чемпионат Испании 2015-2016. 12-й тур. Реал Мадрид — Барселона [21.11] (2015) HDTVRip

96 | 19

1.64 ГБ

В этой теме нет новых непрочитанных сообщений. Футбол. Чемпионат Испании 2010/11. 32тур. Реал Мадрид (Мадрид) - Барселона (Барселона) HDTVRip

3 | 3

1.46 ГБ

В этой теме нет новых непрочитанных сообщений. Футбол. Чемпионат Испании 2015-2016. 12-й тур. Реал Мадрид — Барселона [21.11] (2015) HDTV 1080i

29 | 0

8.91 ГБ

В этой теме нет новых непрочитанных сообщений. Футбол. Чемпионат Испании 2015-2016. 7-й тур. Атлетико Мадрид - Реал Мадрид [04.10] (2015) HDTVRip 720p | 50fps

316 | 91

2.95 ГБ

В этой теме нет новых непрочитанных сообщений. Футбол. Чемпионат Испании 2014-2015. 9-й тур. Реал Мадрид - Барселона [25.10] (2014) HDTVRip 720p | 50 fps

594 | 31

2.91 ГБ

В этой теме нет новых непрочитанных сообщений. Футбол. Чемпионат Испании 2016-17. 33-й тур. Реал Мадрид - Барселона [23.04] (2017) HDTVRip

405 | 8

1.51 ГБ




Вы не можете начинать темы
Вы не можете отвечать на сообщения
Вы не можете редактировать свои сообщения
Вы не можете удалять свои сообщения
Вы не можете добавлять вложения

Перейти:  
Для Мосгорсуда, Роскомнадзора и рекламодателей: mosgorsud-torrent[собачка]yandex.ru
 Вход
ppkBB3cker v.2 © 2008-2014 @ PPK
[ Time : 0.066s | 15 Queries | GZIP : Off ]

Торрент трекер RUTOR.IN, Не можете зайти на rutor.org? Какой новый адрес рутор? Какое зеркало рутор? Не работает rutor.org и зеркала? Тогда наш торрент специально для вас. Rutor.in неофициальное зеркало rutor. В случае если у Вас заблокирован rutor или вдруг Вы не можете на него зайти, то Вы без труда сможете скачать бесплатно и без рекламы последние новинки кино, игр, сериалов и прочего у нас, на Rutor.in. Не нужно использовать прокси, чтобы зайти на рутор, достаточно воспользоваться нашим ресурсом. Все новые фильмы, игры, сериалы, книги и музыка за 2013 и 2014 годы через торрент бесплатно. Скачивайте фильмы в хорошем качестве, игры для пк, xbox, playstation без регистрации. У нас вы найдете новые Зарубежные сериалы и Русские сериалы 2013, 2014, 2015 годов. Оставайтесь с нами, качайте любимые фильмы, игры, сериалы, книги и музыку.