img image001 image001 image001 image001 image001 image001 image001 image001 image001 image001 image001 image001 image001 image001 image001

Planets Sun Sun Sun
Статистика раздачи
Автор: Nickolas3434 | Размер: 436.13 МБ | Добавлен: 28 мар 2016
Раздают: 60    Качают: 4
Скачать торрент
Скачать торрент
Описание торрента

СообщениеДобавлено: 28 мар 2016 


Информация о фильме
Название: Статины - современные взгляды на применение при лечении атеросклероза
Год выхода: 2014
Жанр: Кардиология, дислипидемия, статины
О фильме:
Тема лекции для врачей: Современные подходы к лечению дислипидемий и атеросклероза: состояние проблемы в 2013 году
Докладчик: Обрезан Андрей Григорьевич, профессор, д.м.н.В лекции, основанной на современных европейских и отечественных рекомендациях по диагностике и лечению дислипидемий представлена авторская интерпретация подходов к диагностике атеросклероза, оценке многокомпонентных коморбидных факторов, выбору тактики и стратегии ведения пациента с атеросклерозом. Даны детальные практические рекомендации по выбору терапии при актуальных сочетаниях атеросклероза и иных коморбидных состояний. Приведены многочисленные клинические примеры по практическому преломлению существующих зарубежных рекомендаций к современным возможностям отечественной кардиологической науки и практики.
Страна: Россия
Продолжительность: 01:43:16
Перевод: не требуется
Файл
Кодек: AVC
Качество: IPTVRip 720p
Видео: 396 Кбит/сек,1280 Х 720px, 16:9,25,000 кадров/сек
Звук: AAC,192 Кбит/сек,2 канала,44,1 КГц

Общее
Полное имя : C:UsersUserDesktopСтатины - современные взгляды на применение при лечении атеросклероза. 2014.mp4
Формат : MPEG-4
Профиль формата : Base Media / Version 2
Идентификатор кодека : mp42
Размер файла : 436 Мбайт
Продолжительность : 1 ч. 43 м.
Режим общего битрейта : Переменный
Общий поток : 590 Кбит/сек
Дата кодирования : UTC 2014-04-02 11:25:08
Дата пометки : UTC 2014-04-02 11:25:08
gsst : 0
gstd : 6196175
gssd : B4A7DDA43
Видео
Идентификатор : 1
Формат : AVC
Формат/Информация : Advanced Video Codec
Профиль формата : High@L3.1
Параметр CABAC формата : Да
Параметр ReFrames формата : 1 кадр
Параметр GOP формата : M=1, N=60
Идентификатор кодека : avc1
Идентификатор кодека/Информация : Advanced Video Coding
Продолжительность : 1 ч. 43 м.
Битрейт : 396 Кбит/сек
Максимальный битрейт : 2269 Кбит/сек
Ширина : 1280 пикселей
Высота : 720 пикселей
Соотношение сторон : 16:9
Режим частоты кадров : Постоянный
Частота кадров : 25,000 кадров/сек
Цветовое пространство : YUV
Субдискретизация насыщенности : 4:2:0
Битовая глубина : 8 бит
Тип развёртки : Прогрессивная
Бит/(Пиксели*Кадры) : 0.017
Размер потока : 292 Мбайт (67%)
Дата пометки : UTC 2014-04-02 11:26:57
Аудио
Идентификатор : 2
Формат : AAC
Формат/Информация : Advanced Audio Codec
Профиль формата : LC
Идентификатор кодека : 40
Продолжительность : 1 ч. 43 м.
Вид битрейта : Переменный
Битрейт : 192 Кбит/сек
Максимальный битрейт : 202 Кбит/сек
Каналы : 2 канала
Расположение каналов : Front: L R
Частота : 44,1 КГц
Метод сжатия : С потерями
Размер потока : 142 Мбайт (33%)
Дата кодирования : UTC 2014-04-02 11:26:04
Дата пометки : UTC 2014-04-02 11:26:57

Смотрите ещё Биохимические маркеры метаболических нарушений, ассоциированных с дислипидемией. [2012,видеоматериал для специалистов здравоохранения,HDTVRip]



   Похожие торренты   Торрент   Размер 
В этой теме нет новых непрочитанных сообщений. Место торасемида в лечении больных ХСН и артериальной гипертезией (2014) IPTVRip 720p

19 | 2

402.52 МБ

В этой теме нет новых непрочитанных сообщений. Роль трёхкомпонентной блокады альдостерона в лечении хронической сердечной недостаточности (2014) 720p

30 | 0

383.29 МБ

В этой теме нет новых непрочитанных сообщений. Евгений Белаш - Танки межвоенного периода. Боевое применение (2014) PDF

80 | 11

195.55 МБ

В этой теме нет новых непрочитанных сообщений. Курс 50255: Практическое применение групповых политик в Windows [Специалист] (2014) PCRec

8 | 3

970.55 МБ

В этой теме нет новых непрочитанных сообщений. Противостояние 4 - Современные войны 3 (2014) PC

1301 | 31

1.28 ГБ

В этой теме нет новых непрочитанных сообщений. Целебные растения и их применение (2009) DVDRip

4210 | 969

1.36 ГБ

В этой теме нет новых непрочитанных сообщений. Целебные растения и их применение (2009) DVDRip

77 | 21

2.93 ГБ




Вы не можете начинать темы
Вы не можете отвечать на сообщения
Вы не можете редактировать свои сообщения
Вы не можете удалять свои сообщения
Вы не можете добавлять вложения

Перейти:  
Для Мосгорсуда, Роскомнадзора и рекламодателей: mosgorsud-torrent[собачка]yandex.ru
 Вход
ppkBB3cker v.2 © 2008-2014 @ PPK
[ Time : 0.034s | 15 Queries | GZIP : Off ]

cron