img image001 image001 image001 image001 image001 image001 image001 image001 image001 image001 image001 image001 image001 image001 image001

Planets Sun Sun Sun
Статистика раздачи
Автор: Nickolas3434 | Размер: 689.91 МБ | Добавлен: 29 мар 2016
Раздают: 37    Качают: 2
Скачать торрент
Скачать торрент
Описание торрента

СообщениеДобавлено: 29 мар 2016 


Страна: Россия
Год выпуска: 2012
Продолжительность: 01:19:31
Язык: русский
Русские субтитры: нет
Жанр: Кардиология, дислипидемия, статины
Описание: Лекция д.м.н., проф. В.Ю.Мареева на конференции Общества специалистов по сердечной недостаточности на тему коррекции модифицируемых факторов риска как комплексного подхода к лечению пациентов высокого сердечно-сосудистого риска
Качество видео:IPTVRip
Формат видео: MP4
Видео: AVC,1018 Кбит/сек,1280 Х 614 px,16:9,29 кадров/сек
Аудио: AAC,192 Кбит/сек,2 канала,44,1 КГц
Общее
Полное имя : C:UsersUserDesktopКоррекция множественных факторов риска - путь успешного лечения АГ, ИБС, СС и ХСН. Д.м.н.,проф. Мареев В.Ю.2012.mp4
Формат : MPEG-4
Профиль формата : Base Media / Version 2
Идентификатор кодека : mp42
Размер файла : 690 Мбайт
Продолжительность : 1 ч. 19 м.
Режим общего битрейта : Переменный
Общий поток : 1213 Кбит/сек
Дата кодирования : UTC 2013-01-15 16:17:25
Дата пометки : UTC 2013-01-15 16:17:25
gsst : 0
gstd : 4771885
gssd : B4A7DDA48
Видео
Идентификатор : 1
Формат : AVC
Формат/Информация : Advanced Video Codec
Профиль формата : High@L3.1
Параметр CABAC формата : Да
Параметр ReFrames формата : 1 кадр
Параметр GOP формата : M=1, N=60
Идентификатор кодека : avc1
Идентификатор кодека/Информация : Advanced Video Coding
Продолжительность : 1 ч. 19 м.
Битрейт : 1018 Кбит/сек
Максимальный битрейт : 2927 Кбит/сек
Ширина : 1280 пикселей
Высота : 614 пикселей
Соотношение сторон : 2,085
Режим частоты кадров : Постоянный
Частота кадров : 25,000 кадров/сек
Цветовое пространство : YUV
Субдискретизация насыщенности : 4:2:0
Битовая глубина : 8 бит
Тип развёртки : Прогрессивная
Бит/(Пиксели*Кадры) : 0.052
Размер потока : 579 Мбайт (84%)
Дата пометки : UTC 2013-01-15 16:18:06
Аудио
Идентификатор : 2
Формат : AAC
Формат/Информация : Advanced Audio Codec
Профиль формата : LC
Идентификатор кодека : 40
Продолжительность : 1 ч. 19 м.
Вид битрейта : Переменный
Битрейт : 192 Кбит/сек
Максимальный битрейт : 201 Кбит/сек
Каналы : 2 канала
Расположение каналов : Front: L R
Частота : 44,1 КГц
Метод сжатия : С потерями
Размер потока : 109 Мбайт (16%)
Дата кодирования : UTC 2013-01-15 16:17:59
Дата пометки : UTC 2013-01-15 16:18:06



Также см.
Биохимические маркеры метаболических нарушений, ассоциированных с дислипидемией. [2012,видеоматериал для специалистов здравоохранения,HDTVRip]
Статины - современные взгляды на применение при лечении атеросклероза[2014,видеоматериал для специалистов здравоохранения,IPTVRip]
«Блокада РААС, как основа терапии кардиологических больных на всех этапах сердечно-сосудистого континуума : фокус на фозиноприл.» [2015,видеоматериал для специалистов здравоохранения,IPTVRip]
[Кардиология/Метаболический синдром/Кардиоваскулярная профилактика/Статины/Дислипидемия] Григоренко Е.А., Данилова Л.И., Митьковская Н. П. Сердце и метаболический риск. [2008 г.,PDF,RUS]



   Похожие торренты   Торрент   Размер 
В этой теме нет новых непрочитанных сообщений. Биохимические маркеры метаболических нарушений ассоциированных с дислипидемией. (2012) IPTVRip 720p

28 | 0

393.44 МБ

В этой теме нет новых непрочитанных сообщений. Сахарный диабет и сердечно-сосудистые заболевания: фокус на коррекцию нарушений липидного обмена (2012) IPTVRip 720

97 | 3

223.39 МБ

В этой теме нет новых непрочитанных сообщений. Агеев Ф.Т. - Место антагонистов минералкортикоидных рецепторов в структуре лечения ХСН (2015) IPTVRip 720p

16 | 1

504.28 МБ

В этой теме нет новых непрочитанных сообщений. Божко А.Н. - Ретушь и коррекция изображений в Adobe Photoshop (2012) DJVU

18 | 4

5.45 МБ

В этой теме нет новых непрочитанных сообщений. Путь Махатмы Ганди. Путь к свободе / The road to freedom (2009) IPTVRip от Pshichko66

63 | 5

800.29 МБ

В этой теме нет новых непрочитанных сообщений. Приют комедиантов. Путь к славе [01.05.] (2012) IPTVRip от Files-x

5 | 3

1.07 ГБ

В этой теме нет новых непрочитанных сообщений. В зоне риска [01-16 из 16] (2012) WEB-DLRip-AVC от Files-x

453 | 66

8.81 ГБ




Вы не можете начинать темы
Вы не можете отвечать на сообщения
Вы не можете редактировать свои сообщения
Вы не можете удалять свои сообщения
Вы не можете добавлять вложения

Перейти:  
Для Мосгорсуда, Роскомнадзора и рекламодателей: mosgorsud-torrent[собачка]yandex.ru
 Вход
ppkBB3cker v.2 © 2008-2014 @ PPK
[ Time : 0.033s | 15 Queries | GZIP : Off ]

Торрент трекер RUTOR.IN, Не можете зайти на rutor.org? Какой новый адрес рутор? Какое зеркало рутор? Не работает rutor.org и зеркала? Тогда наш торрент специально для вас. Rutor.in неофициальное зеркало rutor. В случае если у Вас заблокирован rutor или вдруг Вы не можете на него зайти, то Вы без труда сможете скачать бесплатно и без рекламы последние новинки кино, игр, сериалов и прочего у нас, на Rutor.in. Не нужно использовать прокси, чтобы зайти на рутор, достаточно воспользоваться нашим ресурсом. Все новые фильмы, игры, сериалы, книги и музыка за 2013 и 2014 годы через торрент бесплатно. Скачивайте фильмы в хорошем качестве, игры для пк, xbox, playstation без регистрации. У нас вы найдете новые Зарубежные сериалы и Русские сериалы 2013, 2014, 2015 годов. Оставайтесь с нами, качайте любимые фильмы, игры, сериалы, книги и музыку.
cron