img image001 image001 image001 image001 image001 image001 image001 image001 image001 image001 image001 image001 image001 image001 image001

Planets Sun Sun Sun
Статистика раздачи
Автор: Nickolas3434 | Размер: 1.41 ГБ | Добавлен: 04 апр 2016
Раздают: 187    Качают: 27
Скачать торрент
Скачать торрент
Описание торрента

СообщениеДобавлено: 04 апр 2016 


Название: Барселона - Реал
Вид спорта: Футбол
Комментарий: Профессиональный двухголосый
Комментаторы: Константин Генич, Роман Гутцайт
Язык комментаториев: Русский
Год: 2016 (02.04.16)

В 31 туре Чемпионата Испании по футболу 2015—2016 сошлись два фаворита испанской Примеры — Барселона — Реал Мадрид. Матч состоялся 2 апреля 2016 года в Барселоне на стадионе Стадион «Камп Ноу», где хозяева...
31-й тур Испанской Ла Лиги, Стадион: Камп Ноу (Барселона, Испания) , вместимость: 99354
Главный судья: Алехандро Хосе Эрнандес Эрнандес (Санта-Крус-де-Тенерифе, Испания) ; Ассистент: Теодоро Собрино Маган (Испания) ; Ассистент: Хосе Энрике Наранхо Перес (Испания)
Составы команд:
Барселона: Браво - Альба, Маскерано, Пике, Алвес - Иньеста, Бускетс, Ракитич (Туран, 73) - Неймар, Суарес, Месси
Реал: Навас - Марсело, Рамос, Пепе, Карвахаль - Кроос, Каземиро, Модрич - Роналду, Бензема (Хесе, 77), Бэйл (Васкес, 90)
Информация:
Продолжительность: 01:41:00
Перевод: Не требуется
Контейнер: AVI
Кодек: Xvid
Качество: HDTVRip
Видео: 704x400 (16:9), 25 fps, ~1800 kbps
Звук: 48 kHz, MPEG Layer 3, 2 ch, ~128.00 kbps
Субтитры: Отсутствуют
Общее
Полное имя : Барселона - Реал 02.04.2016 HDTVRipБарселона — Реал Мадрид hDTVRip.avi
Формат : AVI
Формат/Информация : Audio Video Interleave
Профиль формата : OpenDML
Размер файла : 1,41 Гбайт
Продолжительность : 1 ч. 42 м.
Общий поток : 1965 Кбит/сек
Видео
Идентификатор : 0
Формат : MPEG-4 Visual
Профиль формата : Advanced Simple@L5
Параметр BVOP формата : 1
Параметр QPel формата : Нет
Параметр GMC формата : Без точки перехода
Параметр матрицы формата : Default (H.263)
Идентификатор кодека : XVID
Идентификатор кодека/Подсказка : XviD
Продолжительность : 1 ч. 42 м.
Битрейт : 1822 Кбит/сек
Ширина : 704 пикселя
Высота : 400 пикселей
Соотношение сторон : 16:9
Частота кадров : 25,000 кадров/сек
Цветовое пространство : YUV
Субдискретизация насыщенности : 4:2:0
Битовая глубина : 8 бит
Тип развёртки : Прогрессивная
Метод сжатия : С потерями
Бит/(Пиксели*Кадры) : 0.259
Размер потока : 1,31 Гбайт (93%)
Библиотека кодирования : XviD 73
Аудио
Идентификатор : 1
Формат : MPEG Audio
Версия формата : Version 1
Профиль формата : Layer 3
Идентификатор кодека : 55
Идентификатор кодека/Подсказка : MP3
Продолжительность : 1 ч. 42 м.
Вид битрейта : Постоянный
Битрейт : 128 Кбит/сек
Каналы : 2 канала
Частота : 48,0 КГц
Метод сжатия : С потерями
Размер потока : 94,3 Мбайт (7%)
Выравнивание : Соединение по промежуткам
Продолжительность промежутка : 24 мс. (0,60 видеокадр)
Было забито 3 мяча. Одна комманда выиграла - другая проиграла.





   Похожие торренты   Торрент   Размер 
В этой теме нет новых непрочитанных сообщений. Футбол. Чемпионат Испании 2015-16. 31-й тур. Барселона - Реал [02.04] (2016) HDTVRip 720p | 50 fps

167 | 20

3.18 ГБ

В этой теме нет новых непрочитанных сообщений. Футбол. Чемпионат Испании 2015-2016. 12 тур. Реал - Барселона [21.11] (2015) HDTVRip

44 | 1

1.59 ГБ

В этой теме нет новых непрочитанных сообщений. Футбол. Чемпионат Испании 2015-2016. 12-й тур. Реал Мадрид — Барселона [21.11] (2015) HDTVRip

96 | 19

1.64 ГБ

В этой теме нет новых непрочитанных сообщений. Футбол. Чемпионат Испании 2015-2016. 12 тур. Реал - Барселона [21.11] (2015) HDTVRip 720р

43 | 2

3.18 ГБ

В этой теме нет новых непрочитанных сообщений. Футбол. Чемпионат Испании 2015-2016. 12-й тур. Реал Мадрид - Барселона [21.11] (2015) HDTVRip-AVC 720p | 50 fps

20 | 5

3.18 ГБ

В этой теме нет новых непрочитанных сообщений. Футбол. Чемпионат Испании 2015-2016. 13 тур. Барселона - Реал Сосьедад [28.11] (2015) HDTVRip 720р | 50 fps

72 | 16

3.01 ГБ

В этой теме нет новых непрочитанных сообщений. Футбол. Чемпионат Испании 2015-2016. 12-й тур. Реал Мадрид — Барселона [21.11] (2015) HDTVRip 720p

298 | 33

2.76 ГБ




Вы не можете начинать темы
Вы не можете отвечать на сообщения
Вы не можете редактировать свои сообщения
Вы не можете удалять свои сообщения
Вы не можете добавлять вложения

Перейти:  
Для Мосгорсуда, Роскомнадзора и рекламодателей: mosgorsud-torrent[собачка]yandex.ru
 Вход
ppkBB3cker v.2 © 2008-2014 @ PPK
[ Time : 0.068s | 14 Queries | GZIP : Off ]

Торрент трекер RUTOR.IN, Не можете зайти на rutor.org? Какой новый адрес рутор? Какое зеркало рутор? Не работает rutor.org и зеркала? Тогда наш торрент специально для вас. Rutor.in неофициальное зеркало rutor. В случае если у Вас заблокирован rutor или вдруг Вы не можете на него зайти, то Вы без труда сможете скачать бесплатно и без рекламы последние новинки кино, игр, сериалов и прочего у нас, на Rutor.in. Не нужно использовать прокси, чтобы зайти на рутор, достаточно воспользоваться нашим ресурсом. Все новые фильмы, игры, сериалы, книги и музыка за 2013 и 2014 годы через торрент бесплатно. Скачивайте фильмы в хорошем качестве, игры для пк, xbox, playstation без регистрации. У нас вы найдете новые Зарубежные сериалы и Русские сериалы 2013, 2014, 2015 годов. Оставайтесь с нами, качайте любимые фильмы, игры, сериалы, книги и музыку.