img image001 image001 image001 image001 image001 image001 image001 image001 image001 image001 image001 image001 image001 image001 image001

Planets Sun Sun Sun
Статистика раздачи
Автор: Nickolas3434 | Размер: 3.18 ГБ | Добавлен: 04 апр 2016
Раздают: 167    Качают: 20
Скачать торрент
Скачать торрент
Описание торрента

СообщениеДобавлено: 04 апр 2016 


Название: Барселона - Реал
Вид спорта: Футбол
Комментарий: Профессиональный двухголосый
Комментаторы: Константин Генич, Роман Гутцайт
Язык комментаториев: Русский
Год: 2016 (02.04.16)

В 31 туре Чемпионата Испании по футболу 2015—2016 сошлись два фаворита испанской Примеры — Барселона — Реал Мадрид. Матч состоялся 2 апреля 2016 года в Барселоне на стадионе Стадион «Камп Ноу», где хозяева...
31-й тур Испанской Ла Лиги, Стадион: Камп Ноу (Барселона, Испания) , вместимость: 99354
Главный судья: Алехандро Хосе Эрнандес Эрнандес (Санта-Крус-де-Тенерифе, Испания) ; Ассистент: Теодоро Собрино Маган (Испания) ; Ассистент: Хосе Энрике Наранхо Перес (Испания)
Составы команд:
Барселона: Браво - Альба, Маскерано, Пике, Алвес - Иньеста, Бускетс, Ракитич (Туран, 73) - Неймар, Суарес, Месси
Реал: Навас - Марсело, Рамос, Пепе, Карвахаль - Кроос, Каземиро, Модрич - Роналду, Бензема (Хесе, 77), Бэйл (Васкес, 90)
Информация:
Продолжительность: 01:46:00
Перевод: Не требуется
Контейнер: MKV
Кодек: AVC
Качество: HDTVRip
Видео: 1280x720 (16:9), 50 fps, ~4000 Kbps
Звук: 48 kHz, 2 channels, 192 Kbps
Субтитры: Отсутствуют
Автор записи/рипа: Striker
Общее
Уникальный идентификатор : 206289004759607922048583167838934758788 (0x9B31D1308246EC28900F893A12237584)
Полное имя : LaLiga.HDTVRip.720pLaLiga.2015-2016.31tour.Barcelona-Real.Madrid.HDTVRip.720p.mkv
Формат : Matroska
Версия формата : Version 4 / Version 2
Размер файла : 3,18 Гбайт
Продолжительность : 1 ч. 46 м.
Общий поток : 4293 Кбит/сек
Дата кодирования : UTC 2016-04-02 21:16:22
Программа кодирования : mkvmerge v7.3.0 ('Nouages') 32bit built on Oct 22 2014 18:44:01
Библиотека кодирования : libebml v1.3.0 + libmatroska v1.4.1
Видео
Идентификатор : 1
Формат : AVC
Формат/Информация : Advanced Video Codec
Профиль формата : High@L4.1
Параметр CABAC формата : Да
Параметр ReFrames формата : 4 кадра
Параметр GOP формата : M=2, N=15
Идентификатор кодека : V_MPEG4/ISO/AVC
Продолжительность : 1 ч. 46 м.
Битрейт : 4098 Кбит/сек
Ширина : 1280 пикселей
Высота : 720 пикселей
Соотношение сторон : 16:9
Режим частоты кадров : Постоянный
Частота кадров : 50,000 кадров/сек
Цветовое пространство : YUV
Субдискретизация насыщенности : 4:2:0
Битовая глубина : 8 бит
Тип развёртки : Прогрессивная
Бит/(Пиксели*Кадры) : 0.089
Размер потока : 3,04 Гбайт (95%)
Default : Да
Forced : Нет
Цветовой диапазон : Limited
Основные цвета : BT.709
Характеристики трансфера : BT.709
Коэффициенты матрицы : BT.709
Аудио
Идентификатор : 2
Формат : AC-3
Формат/Информация : Audio Coding 3
Расширение режима : CM (complete main)
Параметр Endianness формата : Big
Идентификатор кодека : A_AC3
Продолжительность : 1 ч. 46 м.
Вид битрейта : Постоянный
Битрейт : 192 Кбит/сек
Каналы : 2 канала
Расположение каналов : Front: L R
Частота : 48,0 КГц
Частота кадров : 31,250 кадров/сек (1536 spf)
Метод сжатия : С потерями
Размер потока : 146 Мбайт (4%)
Язык : Russian
Default : Да
Forced : Нет
Было забито 3 мяча. Одна комманда выиграла - другая проиграла.





   Похожие торренты   Торрент   Размер 
В этой теме нет новых непрочитанных сообщений. Футбол. Чемпионат Испании 2015-2016. 12-й тур. Реал Мадрид - Барселона [21.11] (2015) HDTVRip-AVC 720p | 50 fps

20 | 5

3.18 ГБ

В этой теме нет новых непрочитанных сообщений. Футбол. Чемпионат Испании 2015-2016. 12-й тур. Реал Мадрид — Барселона [21.11] (2015) HDTVRip 720p

298 | 33

2.76 ГБ

В этой теме нет новых непрочитанных сообщений. Футбол. Чемпионат Испании 2015-16. 31-й тур. Барселона - Реал [02.04] (2016) HDTVRip

187 | 27

1.41 ГБ

В этой теме нет новых непрочитанных сообщений. Футбол. Чемпионат Испании 2013-14. 32-й тур. Барселона (Барселона) - Реал Бетис (Севилья) [05.04] (2014) HDTVRip 720p

95 | 13

3.69 ГБ

В этой теме нет новых непрочитанных сообщений. Футбол. Чемпионат Испании 2014-15. 28-й тур. Эль Класико. Барселона - Реал [22.03] (2015) HDTVRip 720p | 50 fps

219 | 11

3.07 ГБ

В этой теме нет новых непрочитанных сообщений. Футбол. Чемпионат Испании 2015-2016. 12 тур. Реал - Барселона [21.11] (2015) HDTVRip

44 | 1

1.59 ГБ

В этой теме нет новых непрочитанных сообщений. Футбол. Чемпионат Испании 2015-2016. 12 тур. Реал - Барселона [21.11] (2015) HDTVRip 720р

43 | 2

3.18 ГБ




Вы не можете начинать темы
Вы не можете отвечать на сообщения
Вы не можете редактировать свои сообщения
Вы не можете удалять свои сообщения
Вы не можете добавлять вложения

Перейти:  
Для Мосгорсуда, Роскомнадзора и рекламодателей: mosgorsud-torrent[собачка]yandex.ru
 Вход
ppkBB3cker v.2 © 2008-2014 @ PPK
[ Time : 0.535s | 14 Queries | GZIP : Off ]

Торрент трекер RUTOR.IN, Не можете зайти на rutor.org? Какой новый адрес рутор? Какое зеркало рутор? Не работает rutor.org и зеркала? Тогда наш торрент специально для вас. Rutor.in неофициальное зеркало rutor. В случае если у Вас заблокирован rutor или вдруг Вы не можете на него зайти, то Вы без труда сможете скачать бесплатно и без рекламы последние новинки кино, игр, сериалов и прочего у нас, на Rutor.in. Не нужно использовать прокси, чтобы зайти на рутор, достаточно воспользоваться нашим ресурсом. Все новые фильмы, игры, сериалы, книги и музыка за 2013 и 2014 годы через торрент бесплатно. Скачивайте фильмы в хорошем качестве, игры для пк, xbox, playstation без регистрации. У нас вы найдете новые Зарубежные сериалы и Русские сериалы 2013, 2014, 2015 годов. Оставайтесь с нами, качайте любимые фильмы, игры, сериалы, книги и музыку.