img image001 image001 image001 image001 image001 image001 image001 image001 image001 image001 image001 image001 image001 image001 image001

Planets Sun Sun Sun
Статистика раздачи
Автор: Nickolas3434 | Размер: 8.88 ГБ | Добавлен: 05 апр 2016
Раздают: 3    Качают: 0
Скачать торрент
Скачать торрент
Описание торрента

СообщениеДобавлено: 05 апр 2016 


Название: Барселона - Реал
Вид спорта: Футбол
Комментарий: Профессиональный двухголосый
Комментаторы: Константин Генич, Роман Гутцайт
Язык комментаториев: Русский
Год: 2016 (02.04.16)

В 31 туре Чемпионата Испании по футболу 2015—2016 сошлись два фаворита испанской Примеры — Барселона — Реал Мадрид. Матч состоялся 2 апреля 2016 года в Барселоне на стадионе Стадион «Камп Ноу», где хозяева...
31-й тур Испанской Ла Лиги, Стадион: Камп Ноу (Барселона, Испания) , вместимость: 99354
Главный судья: Алехандро Хосе Эрнандес Эрнандес (Санта-Крус-де-Тенерифе, Испания) ; Ассистент: Теодоро Собрино Маган (Испания) ; Ассистент: Хосе Энрике Наранхо Перес (Испания)
Составы команд:
Барселона: Браво - Альба, Маскерано, Пике, Алвес - Иньеста, Бускетс, Ракитич (Туран, 73) - Неймар, Суарес, Месси
Реал: Навас - Марсело, Рамос, Пепе, Карвахаль - Кроос, Каземиро, Модрич - Роналду, Бензема (Хесе, 77), Бэйл (Васкес, 90)
Информация:
Продолжительность: 01:46:00
Перевод: Не требуется
Формат: MPEG-TS
Кодек: AVC
Качество: HDTV.1080i
Видео: 1920x1080 (16:9), ~ 11,2 Мбит/сек
Звук: MPEG Audio Layer 2, 48 kHz, 2 channels, 192 Kbps
Субтитры: Отсутствуют
Автор записи/рипа: Striker
Общее
Идентификатор : 1 (0x1)
Полное имя : Чемпионат Испании 2015-2016 31-й турLaLiga.2015-2016.31tour.Barcelona-Real.Madrid.HDTV.1080i.ts
Формат : MPEG-TS
Размер файла : 8,88 Гбайт
Продолжительность : 1 ч. 45 м.
Режим общего битрейта : Переменный
Общий поток : 12,0 Мбит/сек
Видео
Идентификатор : 301 (0x12D)
Идентификатор меню : 1 (0x1)
Формат : AVC
Формат/Информация : Advanced Video Codec
Профиль формата : High@L4
Параметр CABAC формата : Да
Параметр ReFrames формата : 4 кадра
Идентификатор кодека : 27
Продолжительность : 1 ч. 45 м.
Битрейт : 11,2 Мбит/сек
Ширина : 1920 пикселей
Высота : 1080 пикселей
Соотношение сторон : 16:9
Частота кадров : 25,000 кадров/сек
Стандарт вещания : Component
Цветовое пространство : YUV
Субдискретизация насыщенности : 4:2:0
Битовая глубина : 8 бит
Тип развёртки : Чересстрочная
Метод сохранения типа развёртки : Раздельные поля
Порядок развёртки : Верхнее поле первое
Бит/(Пиксели*Кадры) : 0.217
Размер потока : 8,30 Гбайт (93%)
Цветовой диапазон : Limited
Основные цвета : BT.709
Характеристики трансфера : BT.709
Коэффициенты матрицы : BT.709
Аудио
Идентификатор : 401 (0x191)
Идентификатор меню : 1 (0x1)
Формат : MPEG Audio
Версия формата : Version 1
Профиль формата : Layer 2
Идентификатор кодека : 3
Продолжительность : 1 ч. 45 м.
Вид битрейта : Постоянный
Битрейт : 192 Кбит/сек
Каналы : 2 канала
Частота : 48,0 КГц
Метод сжатия : С потерями
Размер потока : 145 Мбайт (2%)
Язык : Russian





   Похожие торренты   Торрент   Размер 
В этой теме нет новых непрочитанных сообщений. Футбол. Чемпионат Испании 2015-2016. 12-й тур. Реал Мадрид — Барселона [21.11] (2015) HDTV 1080i

106 | 8

8.91 ГБ

В этой теме нет новых непрочитанных сообщений. Футбол. Чемпионат Испании 2014-15. 28-й тур. Эль Класико. Барселона - Реал [22.03] (2015) HDTV 1080i

20 | 3

8.33 ГБ

В этой теме нет новых непрочитанных сообщений. Футбол. Чемпионат Испании 2014-15. 28-й тур. Эль Класико. Барселона - Реал [22.03] (2015) HDTV 1080i

8 | 2

4.08 ГБ

В этой теме нет новых непрочитанных сообщений. Футбол. Чемпионат Испании 2014-15. 28-й тур. Эль Класико. Барселона - Реал Мадрид [22.03] (2015) HDTV 1080i

40 | 3

8.44 ГБ

В этой теме нет новых непрочитанных сообщений. Футбол. Чемпионат Испании 2012-13. 26-й тур. Реал - Барселона (2013) HDTV 1080i

1 | 1

10.19 ГБ

В этой теме нет новых непрочитанных сообщений. Футбол. Чемпионат Испании 2013-14. 29-й тур. Реал Мадрид - Барселона [23.03] (2014) HDTV 1080i

241 | 77

10.28 ГБ

В этой теме нет новых непрочитанных сообщений. Футбол. Чемпионат Испании 2012-13. 19-й тур. Реал Сосьедад - Барселона (2013) HDTV 1080i

0 | 1

9.59 ГБ




Вы не можете начинать темы
Вы не можете отвечать на сообщения
Вы не можете редактировать свои сообщения
Вы не можете удалять свои сообщения
Вы не можете добавлять вложения

Перейти:  
Для Мосгорсуда, Роскомнадзора и рекламодателей: mosgorsud-torrent[собачка]yandex.ru
 Вход
ppkBB3cker v.2 © 2008-2014 @ PPK
[ Time : 0.027s | 14 Queries | GZIP : Off ]

Торрент трекер RUTOR.IN, Не можете зайти на rutor.org? Какой новый адрес рутор? Какое зеркало рутор? Не работает rutor.org и зеркала? Тогда наш торрент специально для вас. Rutor.in неофициальное зеркало rutor. В случае если у Вас заблокирован rutor или вдруг Вы не можете на него зайти, то Вы без труда сможете скачать бесплатно и без рекламы последние новинки кино, игр, сериалов и прочего у нас, на Rutor.in. Не нужно использовать прокси, чтобы зайти на рутор, достаточно воспользоваться нашим ресурсом. Все новые фильмы, игры, сериалы, книги и музыка за 2013 и 2014 годы через торрент бесплатно. Скачивайте фильмы в хорошем качестве, игры для пк, xbox, playstation без регистрации. У нас вы найдете новые Зарубежные сериалы и Русские сериалы 2013, 2014, 2015 годов. Оставайтесь с нами, качайте любимые фильмы, игры, сериалы, книги и музыку.