img image001 image001 image001 image001 image001 image001 image001 image001 image001 image001 image001 image001 image001 image001 image001

Planets Sun Sun Sun
Статистика раздачи
Автор: Nickolas3434 | Размер: 2.91 ГБ | Добавлен: 11 май 2016
Раздают: 51    Качают: 4
Скачать торрент
Скачать торрент
Описание торрента

СообщениеДобавлено: 11 май 2016 

Страна: Россия
Производство: ВГТРК
Жанр: документальный, военный, история
Год выпуска: 2013-2015
Продолжительность: 04:22:25 (00:43:38 + 00:43:55 + 00:43:42 + 00:43:49 + 00:43:44 + 00:43:37)
Перевод: не требуется
Субтитры: нет
Оригинальная аудиодорожка: русский
Режиссер: Юрий Линкевич
Описание:
Документальные фильмы серии "Восход победы" впервые за несколько десятилетий нашей истории дают возможность зрителям увидеть "звездный период" блестящих побед русского солдата в Великой Отечественной войне. Свободные от пристрастных толкований, эти ленты одинаково далеки как от "военного энтузиазма" представлений о войне, так и от "комплекса неудачников", который был характерен для фильмов и книг о ней последние 20 лет.
Шесть серий цикла повествуют о тех сражениях Красной армии с войсками гитлеровской Германии, в которых военное могущество Третьего рейха сначала было подорвано, а затем и уничтожено. Курская битва лета 43-го, форсирование, казалось бы, неприступной линии обороны немцев на Днепровских кручах осенью 43-го серьезно подорвали мощь врага. Но самая блестящая полоса военных удач нашей армии пришлась на 1944 год. Он стал для фашистских войск тем же, чем 41-й - для нашей армии.
В фильмах цикла принимают участие ветераны войны, которые своей кровью и потом добывали эти победы. Их личные фронтовые истории, звучащие в фильмах, — самая драматическая и подлинная хроника Великой Отечественной. Они — последние носители образов и правды той войны, в которой сошлись ужасы боев, рукопашных схваток, танковых атак, ранений, увечий, смертей и торжество победителей, радость освобождения родной земли от врага, чувство гордости за хорошо сделанную тяжелую боевую работу.





Исходник: HDTVRip 720p части 1, 3-6 DVB часть 2
Качество: HDTVRip части 1, 3-6 SATRip часть 2
Формат: AVI
Видео: 720x400 (16:9), 25 fps, XviD ~ 1386 kbps avg, 0.192 bit/pixel
Аудио: 48 kHz, Dolby Digital AC3 2.0, 192 kbps
Раздача от:
01. Курская буря
02. Днепр - крах Восточного вала
03. Падение блокады и Крымская ловушка
04. Багратионовы клещи
05. Разгром германских союзников
06. Советский Блицкриг в Европе

Общее
Полное имя : Voshod.pobedy.2013-2015.HDTVRip_[New-team]_by_AVP_Studio.avi
Формат : AVI
Формат/Информация : Audio Video Interleave
Размер файла : 495 Мбайт
Продолжительность : 43 м.
Общий поток : 1587 Кбит/сек
Программа кодирования : VirtualDubMod 1.5.10.3 | www.virtualdub-fr.org || (build 2550/release)
Библиотека кодирования : VirtualDubMod build 2550/release
Видео
Идентификатор : 0
Формат : MPEG-4 Visual
Профиль формата : Advanced Simple@L5
Параметр BVOP формата : 1
Параметр QPel формата : Нет
Параметр GMC формата : Без точки перехода
Параметр матрицы формата : Выборочная
Идентификатор кодека : XVID
Идентификатор кодека/Подсказка : XviD
Продолжительность : 43 м.
Битрейт : 1386 Кбит/сек
Ширина : 720 пикселей
Высота : 400 пикселей
Соотношение сторон : 16:9
Частота кадров : 25,000 кадров/сек
Цветовое пространство : YUV
Субдискретизация насыщенности : 4:2:0
Битовая глубина : 8 бит
Тип развёртки : Прогрессивная
Метод сжатия : С потерями
Бит/(Пиксели*Кадры) : 0.192
Размер потока : 432 Мбайт (87%)
Библиотека кодирования : XviD 1.2.1 (UTC 2008-12-04)
Аудио
Идентификатор : 1
Формат : AC-3
Формат/Информация : Audio Coding 3
Расширение режима : CM (complete main)
Параметр Endianness формата : Big
Идентификатор кодека : 2000
Продолжительность : 43 м.
Вид битрейта : Постоянный
Битрейт : 192 Кбит/сек
Каналы : 2 канала
Расположение каналов : Front: L R
Частота : 48,0 КГц
Частота кадров : 31,250 кадров/сек (1536 spf)
Метод сжатия : С потерями
Размер потока : 59,9 Мбайт (12%)
Выравнивание : Разделение по промежуткам
Продолжительность промежутка : 40 мс. (1,00 видеокадр)
Время предзагрузки промежутка : 500 мс





   Похожие торренты   Торрент   Размер 
В этой теме нет новых непрочитанных сообщений. Восход победы [01-06 из 06] (2013-2015) HDTVRip-AVC, SATRip-AVC от New-Team

66 | 3

4.37 ГБ

В этой теме нет новых непрочитанных сообщений. Восход победы [1-6 из 6] (2013-2014) SATRip от Generalfilm

296 | 16

3.19 ГБ

В этой теме нет новых непрочитанных сообщений. Восход Победы [01-05 из 06] (2013-2014) HDTVRip от GeneralFilm

181 | 6

2.71 ГБ

В этой теме нет новых непрочитанных сообщений. Восход Победы. Курская буря (2013) IPTVRip от Pshichko66

89 | 3

700.11 МБ

В этой теме нет новых непрочитанных сообщений. Восход Победы: Советский Блицкриг в Европе (2015) HDTV 720p

124 | 10

1.28 ГБ

В этой теме нет новых непрочитанных сообщений. Восход тьмы / The Seeker: The Dark Is Rising (2007) HDTVRip 720p от NOLIMITS-TEAM

12 | 8

2.3 ГБ

В этой теме нет новых непрочитанных сообщений. Парад Победы. Екатеринбург. Военный Парад Победы 68 лет (2013) SATRip

1 | 2

1.18 ГБ




Вы не можете начинать темы
Вы не можете отвечать на сообщения
Вы не можете редактировать свои сообщения
Вы не можете удалять свои сообщения
Вы не можете добавлять вложения

Перейти:  
Для Мосгорсуда, Роскомнадзора и рекламодателей: mosgorsud-torrent[собачка]yandex.ru
 Вход
ppkBB3cker v.2 © 2008-2014 @ PPK
[ Time : 0.062s | 16 Queries | GZIP : Off ]

Торрент трекер RUTOR.IN, Не можете зайти на rutor.org? Какой новый адрес рутор? Какое зеркало рутор? Не работает rutor.org и зеркала? Тогда наш торрент специально для вас. Rutor.in неофициальное зеркало rutor. В случае если у Вас заблокирован rutor или вдруг Вы не можете на него зайти, то Вы без труда сможете скачать бесплатно и без рекламы последние новинки кино, игр, сериалов и прочего у нас, на Rutor.in. Не нужно использовать прокси, чтобы зайти на рутор, достаточно воспользоваться нашим ресурсом. Все новые фильмы, игры, сериалы, книги и музыка за 2013 и 2014 годы через торрент бесплатно. Скачивайте фильмы в хорошем качестве, игры для пк, xbox, playstation без регистрации. У нас вы найдете новые Зарубежные сериалы и Русские сериалы 2013, 2014, 2015 годов. Оставайтесь с нами, качайте любимые фильмы, игры, сериалы, книги и музыку.
cron