img image001 image001 image001 image001 image001 image001 image001 image001 image001 image001 image001 image001 image001 image001 image001

Planets Sun Sun Sun
Статистика раздачи
Автор: Nickolas3434 | Размер: 1.85 ГБ | Добавлен: 10 май 2016
Раздают: 109    Качают: 0
Скачать торрент
Скачать торрент
Описание торрента

СообщениеДобавлено: 10 май 2016 

Москва. Красная Площадь. Военный Парад, Посвящённый 71-й Годовщине Победы в Великой Отечественной Войне 1941-1945 Годов


#77
Год выпуска: 09.05.2016
Страна: Россия
Канал: Первый Канал HD
Жанр: Документальный | Военный Парад
Продолжительность: 1:00:17

Описание: Утро праздничного дня, 9 мая, начинается с прямой трансляции Парада, посвящённого 71-й годовщине Победы в Великой Отечественной войне. По главной площади страны пройдут более 10 тысяч военнослужащих, будет задействовано свыше 100 единиц военной техники, среди которой новейшие танки "Армата", самоходные гаубицы, бронетранспортёры и др.
Впервые по Красной площади пройдёт сводный парадный расчёт женщин-военнослужащих Военного университета Министерства обороны РФ и Вольского военного института материального обеспечения (филиала) Военной академии имени генерала армии Хрулёва.
Завершит военный парад пролёт парадного строя авиации из 71 воздушного судна.

Автор рипа: lrn
Автор записи: GeneralFilm
Сэмпл: sendfile

Тип релиза: HDTVRip 720p
Контейнер: MKV
Видео: 1280x720 (16:9), 25,000 fps, H264, ~4000 kbps avg, ~0.174 bit/pixel
Аудио: 48 kHz, AC3 Dolby Digital, 2/0 (L,R) ch, ~192.00 kbps avg

General
Unique ID : 170843433451649836032988915176927698153 (0x80873F99050E216B9CB7EB3B39C49CE9)
Complete name : E:uTorrent.TempDoneParad.Pobedy.Moskva.Krasnaya.Ploshad.2016.HDTVRip.720p.x264-lrn.mkv
Format : Matroska
Format version : Version 4 / Version 2
File size : 1.85 GiB
Duration : 1h 0mn
Overall bit rate : 4 386 Kbps
Movie name : Parad.Pobedy.Moskva.Krasnaya.Ploshad.2016.HDTVRip.720p.x264-lrn
Encoded date : UTC 2010-02-22 21:41:31
Writing application : mkvmerge v5.9.0 ('On The Loose') built on Dec 9 2012 15:37:01
Writing library : libebml v1.3.0 + libmatroska v1.4.0
Video
ID : 1
Format : AVC
Format/Info : Advanced Video Codec
Format profile : High@L4.1
Format settings, CABAC : Yes
Format settings, ReFrames : 8 frames
Codec ID : V_MPEG4/ISO/AVC
Duration : 1h 0mn
Bit rate : 4 000 Kbps
Width : 1 280 pixels
Height : 720 pixels
Display aspect ratio : 16:9
Frame rate mode : Constant
Frame rate : 25.000 fps
Color space : YUV
Chroma subsampling : 4:2:0
Bit depth : 8 bits
Scan type : Progressive
Bits/(Pixel*Frame) : 0.174
Stream size : 1.65 GiB (89%)
Writing library : x264 core 148 r2638 7599210
Encoding settings : cabac=1 / ref=8 / deblock=1:-3:-3 / analyse=0x3:0x133 / me=umh / subme=9 / psy=1 / psy_rd=1.00:0.00 / mixed_ref=1 / me_range=32 / chroma_me=1 / trellis=2 / 8x8dct=1 / cqm=0 / deadzone=21,11 / fast_pskip=1 / chroma_qp_offset=-2 / threads=12 / lookahead_threads=2 / sliced_threads=0 / nr=0 / decimate=1 / interlaced=0 / bluray_compat=0 / constrained_intra=0 / bframes=8 / b_pyramid=2 / b_adapt=2 / b_bias=0 / direct=3 / weightb=1 / open_gop=0 / weightp=2 / keyint=250 / keyint_min=25 / scenecut=40 / intra_refresh=0 / rc_lookahead=50 / rc=2pass / mbtree=1 / bitrate=4000 / ratetol=1.0 / qcomp=0.60 / qpmin=0 / qpmax=69 / qpstep=4 / cplxblur=20.0 / qblur=0.5 / vbv_maxrate=62500 / vbv_bufsize=78125 / nal_hrd=none / filler=0 / ip_ratio=1.40 / aq=1:1.00
Default : Yes
Forced : No
Statistics Tags Issue : mkvmerge v8.5.2 ('Crosses') 32bit 2016-05-09 12:07:31 / mkvmerge v5.9.0 ('On The Loose') built on Dec 9 2012 15:37:01 2010-02-22 21:41:31
FromStats_BitRate : 4000088
FromStats_Duration : 01:00:17.280000000
FromStats_FrameCount : 90432
FromStats_StreamSize : 1808679836
Audio
ID : 2
Format : AC-3
Format/Info : Audio Coding 3
Mode extension : CM (complete main)
Format settings, Endianness : Big
Codec ID : A_AC3
Duration : 1h 0mn
Bit rate mode : Constant
Bit rate : 384 Kbps
Channel(s) : 6 channels
Channel positions : Front: L C R, Side: L R, LFE
Sampling rate : 48.0 KHz
Frame rate : 31.250 fps (1536 spf)
Compression mode : Lossy
Stream size : 166 MiB (9%)
Language : Russian
Default : Yes
Forced : No
raw [info]: 1280x720p 1:1 @ 25/1 fps (cfr)
x264 [info]: using SAR=1/1
x264 [info]: using cpu capabilities: MMX2 SSE2Fast SSSE3 SSE4.2 AVX
x264 [info]: profile High, level 4.1
x264 [info]: frame I:575 Avg QP:21.17 size:129822
x264 [info]: frame P:27217 Avg QP:24.74 size: 39210
x264 [info]: frame B:62640 Avg QP:28.38 size: 10646
x264 [info]: consecutive B-frames: 6.4% 8.4% 10.5% 47.6% 11.0% 12.0% 2.4% 1.3% 0.5%
x264 [info]: mb I I16..4: 12.0% 59.1% 28.8%
x264 [info]: mb P I16..4: 1.5% 5.5% 1.4% P16..4: 41.7% 19.4% 16.2% 1.3% 0.4% skip:12.5%
x264 [info]: mb B I16..4: 0.1% 0.5% 0.1% B16..8: 42.2% 10.7% 3.1% direct: 4.0% skip:39.3% L0:38.5% L1:46.7% BI:14.8%
x264 [info]: 8x8 transform intra:64.7% inter:51.0%
x264 [info]: direct mvs spatial:96.2% temporal:3.8%
x264 [info]: coded y,uvDC,uvAC intra: 72.4% 70.5% 34.9% inter: 20.5% 15.0% 1.2%
x264 [info]: i16 v,h,dc,p: 26% 26% 8% 40%
x264 [info]: i8 v,h,dc,ddl,ddr,vr,hd,vl,hu: 10% 9% 4% 9% 14% 14% 14% 11% 13%
x264 [info]: i4 v,h,dc,ddl,ddr,vr,hd,vl,hu: 12% 11% 4% 9% 13% 13% 13% 11% 14%
x264 [info]: i8c dc,h,v,p: 33% 28% 22% 17%
x264 [info]: Weighted P-Frames: Y:3.9% UV:1.7%
x264 [info]: ref P L0: 54.0% 14.7% 15.3% 4.6% 3.8% 2.8% 2.7% 1.7% 0.4% 0.0%
x264 [info]: ref B L0: 84.1% 9.3% 3.2% 1.4% 1.0% 0.7% 0.4%
x264 [info]: ref B L1: 95.2% 4.8%
x264 [info]: kb/s:4000.09
encoded 90432 frames, 14.01 fps, 4000.09 kb/s



   Похожие торренты   Торрент   Размер 
В этой теме нет новых непрочитанных сообщений. Парад Победы. Москва. Красная Площадь (2016) HDTVRip-AVC

2 | 0

813.04 МБ

В этой теме нет новых непрочитанных сообщений. Парад Победы. Москва. Красная площадь (2016) HDTVRip

278 | 5

817.95 МБ

В этой теме нет новых непрочитанных сообщений. Парад Победы. Москва. Красная площадь (2016) HDTVRip от GeneralFilm

76 | 2

948.88 МБ

В этой теме нет новых непрочитанных сообщений. Парад Победы - Москва. Красная площадь. Парад, посвященный 66-й годовщине Победы (09.05.2011) SATRip от Generalfilm

0 | 4

600.81 МБ

В этой теме нет новых непрочитанных сообщений. Парад Победы. Москва. Красная Площадь (2013) HDTVRip

6 | 6

977.92 МБ

В этой теме нет новых непрочитанных сообщений. Парад Победы с Возложением Цветов к Могиле Неизвестного Солдата. Москва. Красная Площадь (2015) HDTVRip 720p

889 | 78

3.06 ГБ

В этой теме нет новых непрочитанных сообщений. Парад Победы. Москва. Красная площадь (2016) HDTV 1080i от GeneralFilm

288 | 12

4.19 ГБ




Вы не можете начинать темы
Вы не можете отвечать на сообщения
Вы не можете редактировать свои сообщения
Вы не можете удалять свои сообщения
Вы не можете добавлять вложения

Перейти:  
Для Мосгорсуда, Роскомнадзора и рекламодателей: mosgorsud-torrent[собачка]yandex.ru
 Вход
ppkBB3cker v.2 © 2008-2014 @ PPK
[ Time : 0.967s | 15 Queries | GZIP : Off ]

Торрент трекер RUTOR.IN, Не можете зайти на rutor.org? Какой новый адрес рутор? Какое зеркало рутор? Не работает rutor.org и зеркала? Тогда наш торрент специально для вас. Rutor.in неофициальное зеркало rutor. В случае если у Вас заблокирован rutor или вдруг Вы не можете на него зайти, то Вы без труда сможете скачать бесплатно и без рекламы последние новинки кино, игр, сериалов и прочего у нас, на Rutor.in. Не нужно использовать прокси, чтобы зайти на рутор, достаточно воспользоваться нашим ресурсом. Все новые фильмы, игры, сериалы, книги и музыка за 2013 и 2014 годы через торрент бесплатно. Скачивайте фильмы в хорошем качестве, игры для пк, xbox, playstation без регистрации. У нас вы найдете новые Зарубежные сериалы и Русские сериалы 2013, 2014, 2015 годов. Оставайтесь с нами, качайте любимые фильмы, игры, сериалы, книги и музыку.