img image001 image001 image001 image001 image001 image001 image001 image001 image001 image001 image001 image001 image001 image001 image001

Planets Sun Sun Sun
Статистика раздачи
Автор: Nickolas3434 | Размер: 5.07 ГБ | Добавлен: 16 май 2016
Раздают: 79    Качают: 24
Скачать торрент
Скачать торрент
Описание торрента

СообщениеДобавлено: 16 май 2016 

Bellator 154
Davis vs. King Mo + Main Card

Вид спорта: MMA
Участники:
ОСНОВНОЙ КАРД:
Легкий вес: Адам Пикколотти - Рэй Вуд
Полусредний вес: Андре Фиальо - Рик Регер
Легчайший вес: Джош Сан Диего - Иеремия Лавьяно
Полусредний вес: Саад Эвад - Евангелист Сантос
Главный бой
Полутяжелый вес: Фил Дэвис - Мухаммед Лавал
Комментарий: Русский, Интершум
Описание: Bellator 154 / Davis vs. King Mo + Main Card
Автор записи: Mr. Drax

Качество: HDTV
Формат: TS
Видео: 1920x1080i, H.264, 25 fps, ~ 8992 Кbps
Аудио #1: MP2, 48 kHz, 2 ch, ~192.00 kbps
Аудио #2: MP2, 48 kHz, 2 ch, ~192.00 kbps


























01:13:32

Полное имя : H:Other sportsBellator 154. Davis vs. King Mo. 1080i.ts
Формат : MPEG-TS
Размер файла : 5,07 Гбайт
Продолжительность : 1 ч. 13 м.
Режим общего битрейта : Переменный
Общий поток : 9867 Кбит/сек
Видео
Идентификатор : 204 (0xCC)
Идентификатор меню : 2204 (0x89C)
Формат : AVC
Формат/Информация : Advanced Video Codec
Профиль формата : High@L4
Параметр CABAC формата : Да
Параметр ReFrames формата : 4 кадра
Идентификатор кодека : 27
Продолжительность : 1 ч. 13 м.
Битрейт : 8992 Кбит/сек
Ширина : 1920 пикселей
Высота : 1080 пикселей
Соотношение сторон : 16:9
Частота кадров : 25,000 кадров/сек
Стандарт вещания : Component
Цветовое пространство : YUV
Субдискретизация насыщенности : 4:2:0
Битовая глубина : 8 бит
Тип развёртки : Чересстрочная
Порядок развёртки : Верхнее поле первое
Бит/(Пиксели*Кадры) : 0.173
Размер потока : 4,62 Гбайт (91%)
Цветовой диапазон : Limited
Основные цвета : BT.709
Характеристики трансфера : BT.709
Коэффициенты матрицы : BT.709
Аудио #1
Идентификатор : 304 (0x130)
Идентификатор меню : 2204 (0x89C)
Формат : MPEG Audio
Версия формата : Version 1
Профиль формата : Layer 2
Идентификатор кодека : 3
Продолжительность : 1 ч. 13 м.
Вид битрейта : Постоянный
Битрейт : 192 Кбит/сек
Каналы : 2 канала
Частота : 48,0 КГц
Метод сжатия : С потерями
Размер потока : 101 Мбайт (2%)
Язык : Russian
Аудио #2
Идентификатор : 305 (0x131)
Идентификатор меню : 2204 (0x89C)
Формат : MPEG Audio
Версия формата : Version 1
Профиль формата : Layer 2
Идентификатор кодека : 3
Продолжительность : 1 ч. 13 м.
Вид битрейта : Постоянный
Битрейт : 192 Кбит/сек
Каналы : 2 канала
Частота : 48,0 КГц
Метод сжатия : С потерями
Размер потока : 101 Мбайт (2%)



   Похожие торренты   Торрент   Размер 
В этой теме нет новых непрочитанных сообщений. Смешанные единоборства. Bellator 166: Dantas vs. Warren 2 (Main Card) [02.12] (2016) HDTV 1080i

23 | 11

11.43 ГБ

В этой теме нет новых непрочитанных сообщений. Смешанные единоборства. Bellator 165 - Chandler vs. Henderson (Main Card) [19.11] (2016) HDTV 1080i

9 | 0

15.65 ГБ

В этой теме нет новых непрочитанных сообщений. Смешанные единоборства. MMA. Bellator 143: Warren vs. Davis (Main Card) [25.09] (2015) WEB-DL 1080p

89 | 20

5.22 ГБ

В этой теме нет новых непрочитанных сообщений. Смешанные единоборства. MMA. Bellator MMA 114 - Main Card [28.03] (2014) HDTV 1080i

18 | 8

5.39 ГБ

В этой теме нет новых непрочитанных сообщений. Смешанные единоборства. Bellator 112: Straus vs Curran III - Main Card (2014) HDTV 1080i

12 | 8

5.7 ГБ

В этой теме нет новых непрочитанных сообщений. Смешанные единоборства. Bellator 163. McGeary vs Davis. Основной кард [04.11] (2016) HDTV 1080i

34 | 7

12.88 ГБ

В этой теме нет новых непрочитанных сообщений. Смешанные единоборства. MMA. UFC on FOX 16: Dillashaw vs. Barao II (Preliminary Card, Main Card) [25.07] (2015) HDTV 1080i

7 | 40

15.26 ГБ




Вы не можете начинать темы
Вы не можете отвечать на сообщения
Вы не можете редактировать свои сообщения
Вы не можете удалять свои сообщения
Вы не можете добавлять вложения

Перейти:  
Для Мосгорсуда, Роскомнадзора и рекламодателей: mosgorsud-torrent[собачка]yandex.ru
 Вход
ppkBB3cker v.2 © 2008-2014 @ PPK
[ Time : 1.075s | 17 Queries | GZIP : Off ]

Торрент трекер RUTOR.IN, Не можете зайти на rutor.org? Какой новый адрес рутор? Какое зеркало рутор? Не работает rutor.org и зеркала? Тогда наш торрент специально для вас. Rutor.in неофициальное зеркало rutor. В случае если у Вас заблокирован rutor или вдруг Вы не можете на него зайти, то Вы без труда сможете скачать бесплатно и без рекламы последние новинки кино, игр, сериалов и прочего у нас, на Rutor.in. Не нужно использовать прокси, чтобы зайти на рутор, достаточно воспользоваться нашим ресурсом. Все новые фильмы, игры, сериалы, книги и музыка за 2013 и 2014 годы через торрент бесплатно. Скачивайте фильмы в хорошем качестве, игры для пк, xbox, playstation без регистрации. У нас вы найдете новые Зарубежные сериалы и Русские сериалы 2013, 2014, 2015 годов. Оставайтесь с нами, качайте любимые фильмы, игры, сериалы, книги и музыку.