img image001 image001 image001 image001 image001 image001 image001 image001 image001 image001 image001 image001 image001 image001 image001

Planets Sun Sun Sun
Статистика раздачи
Автор: Nickolas3434 | Размер: 4.14 ГБ | Добавлен: 16 май 2016
Раздают: 65    Качают: 22
Скачать торрент
Скачать торрент
Описание торрента

СообщениеДобавлено: 16 май 2016 

UFC 198
Werdum vs. Miocic + Main Card

Вид спорта: MMA
Участники:
Heavyweight Fabrício Werdum (c) vs. Stipe Miocic *For the UFC Heavyweight Championship
Middleweight Ronaldo Souza vs. Vitor Belfort
Catchweight (140 lbs) Cristiane Justino vs. Leslie Smith
Light Heavyweight Maurício Rua vs. Corey Anderson
Welterweight Warlley Alves vs. Bryan Barberena
Комментарий: Русский, Интершум
Описание: "UFC 198: Werdum vs. Miocic"
прошедшего 14 мая 2016 года в "Arena da Baixada", Куритиба, штат Парана, Бразилия.
Автор записи: Mr. Drax

Качество: HDTVRip
Формат видео: MKV
Видео: H.264, 1280x720, 50 fps, 4000 Kbps
Аудио #1: AC3, 48,0 КГц, 2ch stereo, 192 Кбит/сек
Аудио #2: AC3, 48,0 КГц, 2ch stereo, 192 Кбит/сек

Полное имя : H:Other sportsUFC 198. Werdum vs. Miocic.HDTVRip.720p.50fps.mkv
Формат : Matroska
Версия формата : Version 4 / Version 2
Размер файла : 4,14 Гбайт
Продолжительность : 2 ч. 14 м.
Общий поток : 4395 Кбит/сек
Программа кодирования : Lavf56.0.100
Библиотека кодирования : Lavf56.0.100
Видео
Идентификатор : 1
Формат : AVC
Формат/Информация : Advanced Video Codec
Профиль формата : High@L4.1
Параметр CABAC формата : Да
Параметр ReFrames формата : 4 кадра
Идентификатор кодека : V_MPEG4/ISO/AVC
Продолжительность : 2 ч. 14 м.
Битрейт : 4000 Кбит/сек
Ширина : 1280 пикселей
Высота : 720 пикселей
Соотношение сторон : 16:9
Режим частоты кадров : Постоянный
Частота кадров : 50,000 кадров/сек
Цветовое пространство : YUV
Субдискретизация насыщенности : 4:2:0
Битовая глубина : 8 бит
Тип развёртки : Прогрессивная
Бит/(Пиксели*Кадры) : 0.087
Размер потока : 3,69 Гбайт (89%)
Библиотека кодирования : x264 core 142 r2453 ea0ca51
Настройки программы : cabac=1 / ref=2 / deblock=1:0:0 / analyse=0x3:0x113 / me=hex / subme=6 / psy=1 / psy_rd=1.00:0.00 / mixed_ref=1 / me_range=16 / chroma_me=1 / trellis=1 / 8x8dct=1 / cqm=0 / deadzone=21,11 / fast_pskip=1 / chroma_qp_offset=-2 / threads=12 / lookahead_threads=2 / sliced_threads=0 / nr=0 / decimate=1 / interlaced=0 / bluray_compat=0 / constrained_intra=0 / bframes=3 / b_pyramid=2 / b_adapt=1 / b_bias=0 / direct=1 / weightb=1 / open_gop=0 / weightp=1 / keyint=250 / keyint_min=25 / scenecut=40 / intra_refresh=0 / rc_lookahead=30 / rc=abr / mbtree=1 / bitrate=4000 / ratetol=1.0 / qcomp=0.60 / qpmin=0 / qpmax=69 / qpstep=4 / ip_ratio=1.40 / aq=1:1.00
Default : Да
Forced : Нет
Аудио #1
Идентификатор : 2
Формат : AC-3
Формат/Информация : Audio Coding 3
Расширение режима : CM (complete main)
Параметр Endianness формата : Big
Идентификатор кодека : A_AC3
Продолжительность : 2 ч. 14 м.
Вид битрейта : Постоянный
Битрейт : 192 Кбит/сек
Каналы : 2 канала
Расположение каналов : Front: L R
Частота : 48,0 КГц
Битовая глубина : 32 бит
Метод сжатия : С потерями
Задержка видео : -381 мс.
Размер потока : 185 Мбайт (4%)
Библиотека кодирования : Lavc56.0.100 ac3
Язык : Russian
Default : Да
Forced : Нет
Аудио #2
Идентификатор : 3
Формат : AC-3
Формат/Информация : Audio Coding 3
Расширение режима : CM (complete main)
Параметр Endianness формата : Big
Идентификатор кодека : A_AC3
Продолжительность : 2 ч. 14 м.
Вид битрейта : Постоянный
Битрейт : 192 Кбит/сек
Каналы : 2 канала
Расположение каналов : Front: L R
Частота : 48,0 КГц
Битовая глубина : 32 бит
Метод сжатия : С потерями
Задержка видео : -381 мс.
Размер потока : 185 Мбайт (4%)
Библиотека кодирования : Lavc56.0.100 ac3
Default : Да
Forced : Нет


























02:14:48




   Похожие торренты   Торрент   Размер 
В этой теме нет новых непрочитанных сообщений. MMA. UFC 198. Werdum vs. Miocic + Main Card [14.05] (2016) HDTV 1080i

43 | 2

10.96 ГБ

В этой теме нет новых непрочитанных сообщений. Смешанные единоборства. UFC 203: Miocic vs. Overeem. Main Card [10.09] (2016) HDTVRip 720p | 50 fps

4 | 0

4.22 ГБ

В этой теме нет новых непрочитанных сообщений. Смешанные единоборства. UFC 203: Miocic vs. Overeem. Main Card [10.09] (2016) HDTV 1080i

4 | 0

13.08 ГБ

В этой теме нет новых непрочитанных сообщений. Смешанные единоборства. MMA. UFC on FOX 15: Machida vs. Rockhold (Preliminary Card + Main Card) [18.04] (2015) HDTVRip 720p | 60fps

36 | 20

8.31 ГБ

В этой теме нет новых непрочитанных сообщений. Смешанные единоборства. MMA. UFC 187: Johnson vs. Cormier (Preliminary Card + Main Card) [23.05] (2015) HDTVRip 720p, WEB-DL 720p

79 | 25

8.99 ГБ

В этой теме нет новых непрочитанных сообщений. Смешанные единоборства. MMA. UFC Fight Night 63: Mendes vs. Lamas (Preliminary Card + Main Card) [04.04] (2015) HDTVRip 720p

98 | 23

9.04 ГБ

В этой теме нет новых непрочитанных сообщений. Смешанные единоборства. MMA. UFC Fight Night 62: Maia vs. LaFlare (Preliminary Card + Main Card) [21.03] (2015) HDTVRip 720p

10 | 32

7.71 ГБ




Вы не можете начинать темы
Вы не можете отвечать на сообщения
Вы не можете редактировать свои сообщения
Вы не можете удалять свои сообщения
Вы не можете добавлять вложения

Перейти:  
Для Мосгорсуда, Роскомнадзора и рекламодателей: mosgorsud-torrent[собачка]yandex.ru
 Вход
ppkBB3cker v.2 © 2008-2014 @ PPK
[ Time : 2.348s | 15 Queries | GZIP : On ]

Торрент трекер RUTOR.IN, Не можете зайти на rutor.org? Какой новый адрес рутор? Какое зеркало рутор? Не работает rutor.org и зеркала? Тогда наш торрент специально для вас. Rutor.in неофициальное зеркало rutor. В случае если у Вас заблокирован rutor или вдруг Вы не можете на него зайти, то Вы без труда сможете скачать бесплатно и без рекламы последние новинки кино, игр, сериалов и прочего у нас, на Rutor.in. Не нужно использовать прокси, чтобы зайти на рутор, достаточно воспользоваться нашим ресурсом. Все новые фильмы, игры, сериалы, книги и музыка за 2013 и 2014 годы через торрент бесплатно. Скачивайте фильмы в хорошем качестве, игры для пк, xbox, playstation без регистрации. У нас вы найдете новые Зарубежные сериалы и Русские сериалы 2013, 2014, 2015 годов. Оставайтесь с нами, качайте любимые фильмы, игры, сериалы, книги и музыку.