img image001 image001 image001 image001 image001 image001 image001 image001 image001 image001 image001 image001 image001 image001 image001

Planets Sun Sun Sun
Статистика раздачи
Автор: Nickolas3434 | Размер: 39.09 ГБ | Добавлен: 23 май 2016
Раздают: 3    Качают: 9
Скачать торрент
Скачать торрент
Описание торрента

СообщениеДобавлено: 23 май 2016 


«Сезон: 1 / Серии: 1-22 (22)»


Информация о сериале
Название: Робокоп | Робот-полицейский
Оригинальное название: RoboCop: The Series
Год выхода: 1994
Страна: Канада
Студия: Rysher Entertainment | Skyvision Entertainment
Жанр: фантастика, боевик, приключения
Продолжительность: 1 x ~86 мин., 21 x ~43 мин., общ. ~977 мин.
Переводы:
- Профессиональный (многоголосый закадровый) - [OmskBird] - Серии: 01-22
- Любительский (одноголосый закадровый) - [Azazel] - Серии: 01-22
- Любительский (одноголосый закадровый) - [Женский голос] - Серия: 01
- Авторский (одноголосый закадровый) - [Андрей Гаврилов] - Серии: 02-03
- Авторский (одноголосый закадровый) - [Леонид Володарский] - Серия: 04
- Авторский (одноголосый закадровый) - [Сергей Кузнецов] - Серии: 05-07
- Авторский (одноголосый закадровый) - [Сергей Визгунов] - Серии: 09-12
- Авторский (одноголосый закадровый) - [Пётр Карцев] - Серии: 13-14
Субтитры: русские (форсированные, полные), английские (полные)
Режиссеры: Пол Линч, Майкл Виджер, Аллан Истмэн
В ролях: Ричард Иден, Иветт Нипар, Блу Манкума, Андреа Рот, Дэвид Гарднер, Сара Кэмпбелл, Дэн Дюран, Эрика Эм, Эд Сэйхли, Дженнифер Гриффин, Кен Куинн, Патрик МакКенна, Питер Костиган, Джордан Хьюз, Джеймс Кидни, Джейсон Бликер и др.
Описание:
Его создали из самого честного полицейского в городе по имени Алекс Мерфи. Создали, соединив человеческую плоть со сталью машины. Вероломно убитый бандитами офицер Мерфи стал частью уникального эксперимента корпорации OCP по созданию первого в истории робота-полицейского, несокрушимого и грозного защитника закона.
Его нельзя подкупить. Его чертовски сложно взять на жалость и совершенно невозможно испугать. Соревнования с ним в искусстве стрельбы и тактике ведения боя — бесполезны. Это полумеханическое существо специально создано для войны в экстремальных условиях.

Файл
Качество: DVD-Remux
Формат: MKV
Видео кодек: MPEG2
Аудио кодек: AC3
Видео: MPEG2, 720x576@768x576 (4:3), 25.000 fps, ~4887 Kbps, 0.471 bit/pixel
Аудио #1: 48 kHz, AC3 Dolby Digital, 2ch, 192 Kbps | Russian | MVO (ep.01-22)
Аудио #2: 48 kHz, AC3 Dolby Digital, 2ch, 192 Kbps | Russian | VO (ep.01-22)
Аудио #3: 48 kHz, AC3 Dolby Digital, 2ch, 192 Kbps | Russian / English | AVO (ep.01-07, 09-14), Original (ep.08, 15-22)
Аудио #4: 48 kHz, AC3 Dolby Digital, 2ch, 224 Kbps | English | Original (ep.01-07, 09-14)
Формат субтитров: softsub (SRT) - встроенные (отключаемые)



Релиз от: KinoView




Эпизод: 01 - «Будущее охраны правопорядка» (The Future of Law Enforcement)
Эпизод: 02 - «Главный подозреваемый» (Prime Suspect)
Эпизод: 03 - «Неприятности в Дельта Сити» (Trouble in Delta City)
Эпизод: 04 - «Пропавший без вести» (Officer Missing)
Эпизод: 05 - «Что нельзя купить за деньги» (What Money Can't Buy)
Эпизод: 06 - «Тень Войны» (Ghosts of War)
Эпизод: 07 - «Зона №5» (Zone Five)
Эпизод: 08 - «Поправка 22» (Provision 22)
Эпизод: 09 - «Многоликие» (Faces of Eve)
Эпизод: 10 - «Когда правосудие не работает» (When Justice Fails)
Эпизод: 11 - «Человеческий Фактор» (The Human Factor)
Эпизод: 12 - «Преступление изнутри» (Inside Crime)
Эпизод: 13 - «Робокоп против Капитана Кэша» (Robocop vs. Commander Cash)
Эпизод: 14 - «Иллюзии» (Illusions)
Эпизод: 15 - «Железный человек» (The Tin Man)
Эпизод: 16 - «Сёстры-соучастницы» (Sisters in Crime)
Эпизод: 17 - «Сердцеед» (Heartbreakers)
Эпизод: 18 - «День матери» (Mother's Day)
Эпизод: 19 - «Нано» (Nano)
Эпизод: 20 - «Корпоративные налетчики» (Corporate Raiders)
Эпизод: 21 - «Без одной минуты полночь» (Midnight Minus One)
Эпизод: 22 - «Общественные враги» (Public Enemies)

Код:
General
Unique ID                   : 206222627909298406471304238468258497428 (0x9B25088EDF948E88BF7E26C6604A8394)
Complete name               : RoboCop.S01E02.Prime.Suspect.DVD-Remux.480i.MPEG2.AC3.[3xRUS]+[ENG]+[SUB].-KinoView.mkv
Format                      : Matroska
Format version              : Version 2
File size                   : 1.72 GiB
Duration                    : 42mn 30s
Overall bit rate            : 5 803 Kbps
Movie name                  : Робокоп / RoboCop: The Series / Сезон: 1 / Эпизод: 02 - Главный подозреваемый
Encoded date                : UTC 2016-05-20 14:11:19
Writing application         : mkvmerge v5.2.1 ('A Far Off Place') built on Jan  2 2012 23:21:10
Writing library             : libebml v1.2.3 + libmatroska v1.3.0
Cover                       : Yes
Attachments                 : Cover-02.png
Video
ID                          : 1
Format                      : MPEG Video
Format version              : Version 2
Format profile              : Main@Main
Format settings, BVOP       : Yes
Format settings, Matrix     : Custom
Format settings, GOP        : M=3, N=12
Format settings, picture st : Frame
Codec ID                    : V_MPEG2
Codec ID/Info               : MPEG 1 or 2 Video
Duration                    : 42mn 30s
Bit rate                    : 4 888 Kbps
Maximum bit rate            : 5 000 Kbps
Width                       : 720 pixels
Height                      : 576 pixels
Display aspect ratio        : 4:3
Frame rate mode             : Constant
Frame rate                  : 25.000 fps
Standard                    : PAL
Color space                 : YUV
Chroma subsampling          : 4:2:0
Bit depth                   : 8 bits
Scan type                   : Interlaced
Scan order                  : Top Field First
Compression mode            : Lossy
Bits/(Pixel*Frame)          : 0.471
Time code of first frame    : 01:00:00:00
Time code source            : Group of pictures header
GOP, Open/Closed            : Closed
Stream size                 : 1.45 GiB (84%)
Title                       : Релиз от: KinoView
Language                    : English
Default                     : Yes
Forced                      : No
Audio #1
ID                          : 2
Format                      : AC-3
Format/Info                 : Audio Coding 3
Mode extension              : CM (complete main)
Format settings, Endianness : Big
Muxing mode                 : Header stripping
Codec ID                    : A_AC3
Duration                    : 42mn 30s
Bit rate mode               : Constant
Bit rate                    : 192 Kbps
Channel(s)                  : 2 channels
Channel positions           : Front: L R
Sampling rate               : 48.0 KHz
Frame rate                  : 31.250 fps (1536 spf)
Compression mode            : Lossy
Stream size                 : 58.4 MiB (3%)
Title                       : MVO (OmskBird)
Language                    : Russian
Default                     : Yes
Forced                      : No
Audio #2
ID                          : 3
Format                      : AC-3
Format/Info                 : Audio Coding 3
Mode extension              : CM (complete main)
Format settings, Endianness : Big
Muxing mode                 : Header stripping
Codec ID                    : A_AC3
Duration                    : 42mn 30s
Bit rate mode               : Constant
Bit rate                    : 192 Kbps
Channel(s)                  : 2 channels
Channel positions           : Front: L R
Sampling rate               : 48.0 KHz
Frame rate                  : 31.250 fps (1536 spf)
Compression mode            : Lossy
Stream size                 : 58.4 MiB (3%)
Title                       : VO (Azazel)
Language                    : Russian
Default                     : No
Forced                      : No
Audio #3
ID                          : 4
Format                      : AC-3
Format/Info                 : Audio Coding 3
Mode extension              : CM (complete main)
Format settings, Endianness : Big
Muxing mode                 : Header stripping
Codec ID                    : A_AC3
Duration                    : 42mn 30s
Bit rate mode               : Constant
Bit rate                    : 192 Kbps
Channel(s)                  : 2 channels
Channel positions           : Front: L R
Sampling rate               : 48.0 KHz
Frame rate                  : 31.250 fps (1536 spf)
Compression mode            : Lossy
Stream size                 : 58.4 MiB (3%)
Title                       : AVO (Гаврилов)
Language                    : Russian
Default                     : No
Forced                      : No
Audio #4
ID                          : 5
Format                      : AC-3
Format/Info                 : Audio Coding 3
Mode extension              : CM (complete main)
Format settings, Endianness : Big
Muxing mode                 : Header stripping
Codec ID                    : A_AC3
Duration                    : 42mn 30s
Bit rate mode               : Constant
Bit rate                    : 224 Kbps
Channel(s)                  : 2 channels
Channel positions           : Front: L R
Sampling rate               : 48.0 KHz
Frame rate                  : 31.250 fps (1536 spf)
Compression mode            : Lossy
Delay relative to video     : 14ms
Stream size                 : 68.1 MiB (4%)
Title                       : Original
Language                    : English
Default                     : No
Forced                      : No
Text #1
ID                          : 6
Format                      : UTF-8
Codec ID                    : S_TEXT/UTF8
Codec ID/Info               : UTF-8 Plain Text
Title                       : Forced
Language                    : Russian
Default                     : Yes
Forced                      : No
Text #2
ID                          : 7
Format                      : UTF-8
Codec ID                    : S_TEXT/UTF8
Codec ID/Info               : UTF-8 Plain Text
Title                       : Full
Language                    : Russian
Default                     : No
Forced                      : No
Text #3
ID                          : 8
Format                      : UTF-8
Codec ID                    : S_TEXT/UTF8
Codec ID/Info               : UTF-8 Plain Text
Title                       : Full
Language                    : English
Default                     : No
Forced                      : No
 






   Похожие торренты   Торрент   Размер 
В этой теме нет новых непрочитанных сообщений. Робокоп / Робот-полицейский / RoboCop (1987) Blu-Ray

2 | 10

33.81 ГБ

В этой теме нет новых непрочитанных сообщений. Робокоп / Робот-полицейский / RoboCop (1987) BDRip 720p

12 | 4

6.12 ГБ

В этой теме нет новых непрочитанных сообщений. Робокоп 3 / Робот-полицейский 3 / Robocop 3 (1993) BDRip-AVC от HQCLUB

19 | 2

3.22 ГБ

В этой теме нет новых непрочитанных сообщений. Робот-полицейский / Робокоп / RoboCop (1987) BDRip от Youtracker

42 | 8

1.46 ГБ

В этой теме нет новых непрочитанных сообщений. Робокоп 2 / Робот-Полицейский 2 / RoboCop 2 (1990) BDRip от HQCLUB

159 | 19

2.19 ГБ

В этой теме нет новых непрочитанных сообщений. Робокоп / Робот-полицейский / RoboCop (1987) HDRip-AVC от 0ptimus

0 | 10

6.4 ГБ

В этой теме нет новых непрочитанных сообщений. Робокоп 3 / Робот-Полицейский 3 / RoboCop 3 (1993) BDRip от HQCLUB

164 | 22

2.18 ГБ




Вы не можете начинать темы
Вы не можете отвечать на сообщения
Вы не можете редактировать свои сообщения
Вы не можете удалять свои сообщения
Вы не можете добавлять вложения

Перейти:  
Для Мосгорсуда, Роскомнадзора и рекламодателей: mosgorsud-torrent[собачка]yandex.ru
 Вход
ppkBB3cker v.2 © 2008-2014 @ PPK
[ Time : 0.424s | 16 Queries | GZIP : Off ]

Торрент трекер RUTOR.IN, Не можете зайти на rutor.org? Какой новый адрес рутор? Какое зеркало рутор? Не работает rutor.org и зеркала? Тогда наш торрент специально для вас. Rutor.in неофициальное зеркало rutor. В случае если у Вас заблокирован rutor или вдруг Вы не можете на него зайти, то Вы без труда сможете скачать бесплатно и без рекламы последние новинки кино, игр, сериалов и прочего у нас, на Rutor.in. Не нужно использовать прокси, чтобы зайти на рутор, достаточно воспользоваться нашим ресурсом. Все новые фильмы, игры, сериалы, книги и музыка за 2013 и 2014 годы через торрент бесплатно. Скачивайте фильмы в хорошем качестве, игры для пк, xbox, playstation без регистрации. У нас вы найдете новые Зарубежные сериалы и Русские сериалы 2013, 2014, 2015 годов. Оставайтесь с нами, качайте любимые фильмы, игры, сериалы, книги и музыку.
cron