img image001 image001 image001 image001 image001 image001 image001 image001 image001 image001 image001 image001 image001 image001 image001

Planets Sun Sun Sun
Статистика раздачи
Автор: Nickolas3434 | Размер: 6.6 ГБ | Добавлен: 01 июн 2016
Раздают: 20    Качают: 0
Скачать торрент
Скачать торрент
Описание торрента

СообщениеДобавлено: 01 июн 2016 

UFC Fight Night 88
Almeida vs. Cardrandt + Main Card

Вид спорта: MMA
Участники:
BantamweightCody Garbrandt vs. Thomas Almeida
FeatherweightJeremy Stephens vs. Renan Barão
WelterweightRick Story vs. Tarec Saffiedine
MiddleweightChris Camozzi vs. Vitor Miranda
WelterweightLorenz Larkin vs. Jorge Masvidal
LightweightPaul Felder vs. Josh Burkman
Комментарий: Русский
Описание: UFC Fight Night: Almeida vs. Garbrandt (also known as UFC Fight Night 88) was a mixed martial arts event held on May 29, 2016 at the Mandalay Bay Events Center in Las Vegas, Nevada
Автор записи: Mr. Drax

Качество: HDTV
Формат видео: TS
Видео: H.264, 720x576 (4:3) @ 1024x576 (16:9), 25 fps, ~4300 kbps avg, 0.421 bit/pixel
Аудио: MP2, 48,0 КГц, 2ch stereo, 192 Кбит/сек

Полное имя : H:Other sportsUFC Fight Night 88. Almeida vs. Garbrandt.29.05.2016.576i.ts
Формат : MPEG-TS
Размер файла : 6,60 Гбайт
Продолжительность : 3 ч. 16 м.
Режим общего битрейта : Переменный
Общий поток : 4796 Кбит/сек
Видео
Идентификатор : 331 (0x14B)
Идентификатор меню : 10211 (0x27E3)
Формат : MPEG Video
Версия формата : Version 2
Профиль формата : Main@Main
Параметр BVOP формата : Да
Параметр матрицы формата : Выборочная
Параметр GOP формата : Variable
Структура изображения : Frame
Идентификатор кодека : 2
Продолжительность : 3 ч. 16 м.
Вид битрейта : Переменный
Битрейт : 4365 Кбит/сек
Максимальный битрейт : 15,0 Мбит/сек
Ширина : 720 пикселей
Высота : 576 пикселей
Соотношение сторон : 16:9
Частота кадров : 25,000 кадров/сек
Стандарт вещания : PAL
Цветовое пространство : YUV
Субдискретизация насыщенности : 4:2:0
Битовая глубина : 8 бит
Тип развёртки : Чересстрочная
Порядок развёртки : Верхнее поле первое
Метод сжатия : С потерями
Бит/(Пиксели*Кадры) : 0.421
Временной код первого кадра : 00:00:00:00
Оригинал временного кода : Group of pictures header
GOP, открыто/закрыто : Открыто
Размер потока : 6,01 Гбайт (91%)
Аудио
Идентификатор : 420 (0x1A4)
Идентификатор меню : 10211 (0x27E3)
Формат : MPEG Audio
Версия формата : Version 1
Профиль формата : Layer 2
Идентификатор кодека : 3
Продолжительность : 3 ч. 16 м.
Вид битрейта : Постоянный
Битрейт : 192 Кбит/сек
Каналы : 2 канала
Частота : 48,0 КГц
Метод сжатия : С потерями
Задержка видео : 15 мс.
Размер потока : 270 Мбайт (4%)
Язык : Russian


























03:16:58




   Похожие торренты   Торрент   Размер 
В этой теме нет новых непрочитанных сообщений. MMA. UFC Fight Night 88. Almeida vs. Cardrandt. Full Event [29.05] (2016) WEB-DL 720p

6 | 1

11.56 ГБ

В этой теме нет новых непрочитанных сообщений. Смешанные единоборства. UFC Fight Night 85: Hunt vs. Mir (Preliminary Card / Main Card) [20.03] (2016) HDTV1080i

27 | 11

20.1 ГБ

В этой теме нет новых непрочитанных сообщений. Смешанные единоборства. MMA. UFC Fight Night 63: Mendes vs. Lamas (Preliminary Card + Main Card) [04.04] (2015) HDTVRip

120 | 47

2.73 ГБ

В этой теме нет новых непрочитанных сообщений. Смешанные единоборства. MMA. UFC Fight Night 62: Maia vs. LaFlare (Preliminary Card + Main Card) [21.03] (2015) HDTVRip

74 | 13

2.64 ГБ

В этой теме нет новых непрочитанных сообщений. Смешанные единоборства. MMA. UFC Fight Night 63: Mendes vs. Lamas (Preliminary Card + Main Card) [04.04] (2015) HDTVRip 720p

98 | 23

9.04 ГБ

В этой теме нет новых непрочитанных сообщений. Смешанные единоборства. MMA. UFC Fight Night 62: Maia vs. LaFlare (Preliminary Card + Main Card) [21.03] (2015) HDTVRip 720p

10 | 32

7.71 ГБ

В этой теме нет новых непрочитанных сообщений. Смешанные единоборства. UFC Fight Night 101: Whittaker vs. Brunson (Main Card) [27.11] (2016) HDTVRip

9 | 1

1.8 ГБ




Вы не можете начинать темы
Вы не можете отвечать на сообщения
Вы не можете редактировать свои сообщения
Вы не можете удалять свои сообщения
Вы не можете добавлять вложения

Перейти:  
Для Мосгорсуда, Роскомнадзора и рекламодателей: mosgorsud-torrent[собачка]yandex.ru
 Вход
ppkBB3cker v.2 © 2008-2014 @ PPK
[ Time : 0.073s | 15 Queries | GZIP : Off ]

Торрент трекер RUTOR.IN, Не можете зайти на rutor.org? Какой новый адрес рутор? Какое зеркало рутор? Не работает rutor.org и зеркала? Тогда наш торрент специально для вас. Rutor.in неофициальное зеркало rutor. В случае если у Вас заблокирован rutor или вдруг Вы не можете на него зайти, то Вы без труда сможете скачать бесплатно и без рекламы последние новинки кино, игр, сериалов и прочего у нас, на Rutor.in. Не нужно использовать прокси, чтобы зайти на рутор, достаточно воспользоваться нашим ресурсом. Все новые фильмы, игры, сериалы, книги и музыка за 2013 и 2014 годы через торрент бесплатно. Скачивайте фильмы в хорошем качестве, игры для пк, xbox, playstation без регистрации. У нас вы найдете новые Зарубежные сериалы и Русские сериалы 2013, 2014, 2015 годов. Оставайтесь с нами, качайте любимые фильмы, игры, сериалы, книги и музыку.