img image001 image001 image001 image001 image001 image001 image001 image001 image001 image001 image001 image001 image001 image001 image001

Planets Sun Sun Sun
Статистика раздачи
Автор: Nickolas3434 | Размер: 11.56 ГБ | Добавлен: 01 июн 2016
Раздают: 6    Качают: 1
Скачать торрент
Скачать торрент
Описание торрента

СообщениеДобавлено: 01 июн 2016 

UFC Fight Night 88
Almeida vs. Cardrandt. Full Event

Вид спорта: MMA
Участники:
Early Prelims
[Bantamweight] Aljamain Sterling vs. Bryan Caraway
[Heavyweight] Chris De La Rocha vs. Adam Milstead
Preliminary Card
[Women's Bantamweight] Sara McMann vs. Jessica Eye
[Lightweight] Abel Trujillo vs. Jordan Rinaldi
[Middleweight] Jake Collier vs. Alberto Uda
[Lightweight] Erik Koch vs. Shane Campbell
Main Card
[Bantamweight] Thomas Almeida vs. Cody Garbrandt
[Featherweight] Renan Barão vs. Jeremy Stephens
[Welterweight] Tarec Saffiedine vs. Rick Story
[Middleweight] Chris Camozzi vs. Vitor Miranda
[Welterweight] Jorge Masvidal vs. Lorenz Larkin
[Lightweight] Josh Burkman vs. Paul Felder
Комментарий: Английский
Описание: Все бои турнира "UFC Fight Night 88: Almeida vs. Garbrandt", прошедшего 29 мая 2016 года в "Mandalay Bay Events Center", Лас Вегас, штат Невада, США.
Автор записи: Fight-BB
Качество: WEB-DL HD
Формат видео: MP4
Видео: 1280x720 (16:9), 29,970 fps, H264, ~4300 kbps avg, ~0.154 bit/pixel
Аудио: 44,1 kHz, AAC, 2 ch (L,R) ch, ~126.00 kbps avg

Полное имя : E:SportUFC Fight Night 88. Almeida vs. Garbrandt (Full Event) [HD 720p, ENG]UFC.Fight.Night.88.720p.WEB-DL.H264.Fight-BB.mp4
Формат : MPEG-4
Профиль формата : Base Media
Идентификатор кодека : isom
Размер файла : 6,05 Гбайт
Продолжительность : 3 ч. 18 м.
Общий поток : 4378 Кбит/сек
Программа кодирования : Lavf56.40.101
Видео
Идентификатор : 1
Формат : AVC
Формат/Информация : Advanced Video Codec
Профиль формата : Main@L4
Параметр CABAC формата : Да
Параметр ReFrames формата : 3 кадра
Идентификатор кодека : avc1
Идентификатор кодека/Информация : Advanced Video Coding
Продолжительность : 3 ч. 18 м.
Битрейт : 4242 Кбит/сек
Ширина : 1280 пикселей
Высота : 720 пикселей
Соотношение сторон : 16:9
Режим частоты кадров : Постоянный
Частота кадров : 29,970 кадров/сек
Цветовое пространство : YUV
Субдискретизация насыщенности : 4:2:0
Битовая глубина : 8 бит
Тип развёртки : Прогрессивная
Бит/(Пиксели*Кадры) : 0.154
Размер потока : 5,87 Гбайт (97%)
Аудио
Идентификатор : 2
Формат : AAC
Формат/Информация : Advanced Audio Codec
Профиль формата : LC
Идентификатор кодека : 40
Продолжительность : 3 ч. 18 м.
Вид битрейта : Постоянный
Битрейт : 126 Кбит/сек
Каналы : 2 канала
Расположение каналов : Front: L R
Частота : 44,1 КГц
Метод сжатия : С потерями
Размер потока : 178 Мбайт (3%)


























06:14:23




   Похожие торренты   Торрент   Размер 
В этой теме нет новых непрочитанных сообщений. MMA. UFC Fight Night 88. Almeida vs. Cardrandt + Main Card [29.05] (2016) HDTVRip | 25fps

13 | 0

6.6 ГБ

В этой теме нет новых непрочитанных сообщений. Смешанные единоборства. UFC Fight Night 94: Poirier vs. Johnson (Full Event) [17.09] (2016) WEB-DL 720p

0 | 0

10.42 ГБ

В этой теме нет новых непрочитанных сообщений. Смешанные единоборства. UFC Fight Night 96: Lineker vs. Dodson (Full Event) [01.10] (2016) WEB-DL, HDTV 720p

0 | 0

9.79 ГБ

В этой теме нет новых непрочитанных сообщений. Смешанные единоборства. UFC Fight Night 100: Bader vs. Nogueira II (Full Event) [19.11] (2016) WEB-DL, HDTV 720p

10 | 6

10.12 ГБ

В этой теме нет новых непрочитанных сообщений. Смешанные единоборства. UFC Fight Night 101: Whittaker vs. Brunson (Full Event) [27.11] (2016) WEB-DL, HDTV 720p

14 | 5

12 ГБ

В этой теме нет новых непрочитанных сообщений. Смешанные единоборства. UFC Fight Night 93: Andrei Arlovski vs. Josh Barnett. (Full Event) [03.09] (2016) WEB-DL 720p

0 | 0

9.89 ГБ

В этой теме нет новых непрочитанных сообщений. Смешанные единоборства. UFC Fight Night 85: Hunt vs. Mir (Full Event) [20.03] (2016) WEB-DL 480p

283 | 75

3.81 ГБ




Вы не можете начинать темы
Вы не можете отвечать на сообщения
Вы не можете редактировать свои сообщения
Вы не можете удалять свои сообщения
Вы не можете добавлять вложения

Перейти:  
Для Мосгорсуда, Роскомнадзора и рекламодателей: mosgorsud-torrent[собачка]yandex.ru
 Вход
ppkBB3cker v.2 © 2008-2014 @ PPK
[ Time : 0.064s | 15 Queries | GZIP : Off ]

Торрент трекер RUTOR.IN, Не можете зайти на rutor.org? Какой новый адрес рутор? Какое зеркало рутор? Не работает rutor.org и зеркала? Тогда наш торрент специально для вас. Rutor.in неофициальное зеркало rutor. В случае если у Вас заблокирован rutor или вдруг Вы не можете на него зайти, то Вы без труда сможете скачать бесплатно и без рекламы последние новинки кино, игр, сериалов и прочего у нас, на Rutor.in. Не нужно использовать прокси, чтобы зайти на рутор, достаточно воспользоваться нашим ресурсом. Все новые фильмы, игры, сериалы, книги и музыка за 2013 и 2014 годы через торрент бесплатно. Скачивайте фильмы в хорошем качестве, игры для пк, xbox, playstation без регистрации. У нас вы найдете новые Зарубежные сериалы и Русские сериалы 2013, 2014, 2015 годов. Оставайтесь с нами, качайте любимые фильмы, игры, сериалы, книги и музыку.