img image001 image001 image001 image001 image001 image001 image001 image001 image001 image001 image001 image001 image001 image001 image001

Planets Sun Sun Sun
Статистика раздачи
Автор: Nickolas3434 | Размер: 11.75 ГБ | Добавлен: 06 июн 2016
Раздают: 25    Качают: 3
Скачать торрент
Скачать торрент
Описание торрента

СообщениеДобавлено: 06 июн 2016 

UFC 199
Rockhold vs. Bisping 2

Вид спорта: MMA
Участники:
Michael Bisping def. Luke Rockhold TITLE FIGHT
Dominick Cruz def. Urijah Faber TITLE FIGHT
Max Holloway def. Ricardo Lamas
Dan Henderson def. Hector Lombard
Dustin Poirier def. Bobby Green
Комментарий: Русский, Интершум
Описание: "UFC 199: Rockhold vs. Bisping 2"
прошедшего 04 июня 2016 года в "The Forum", Лос Анджелес, штат Калифорния, США.
Автор записи: Mr. Drax

Качество: HDTV
Формат: TS
Видео: 1920x1080i, H.264, 25 fps, ~ 9,7 Mbps
Аудио #1: MP2, 48 kHz, 2 ch, ~192.00 kbps
Аудио #2: MP2, 48 kHz, 2 ch, ~192.00 kbps

Полное имя : H:Other sportsUFC 199. Rockhold vs. Bisping 2. 1080i.ts
Формат : MPEG-TS
Размер файла : 11,7 Гбайт
Продолжительность : 2 ч. 38 м.
Режим общего битрейта : Переменный
Общий поток : 10,6 Мбит/сек
Видео
Идентификатор : 204 (0xCC)
Идентификатор меню : 2204 (0x89C)
Формат : AVC
Формат/Информация : Advanced Video Codec
Профиль формата : High@L4
Параметр CABAC формата : Да
Параметр ReFrames формата : 4 кадра
Идентификатор кодека : 27
Продолжительность : 2 ч. 38 м.
Битрейт : 9700 Кбит/сек
Ширина : 1920 пикселей
Высота : 1080 пикселей
Соотношение сторон : 16:9
Частота кадров : 25,000 кадров/сек
Стандарт вещания : Component
Цветовое пространство : YUV
Субдискретизация насыщенности : 4:2:0
Битовая глубина : 8 бит
Тип развёртки : Чересстрочная
Порядок развёртки : Верхнее поле первое
Бит/(Пиксели*Кадры) : 0.187
Размер потока : 10,7 Гбайт (91%)
Цветовой диапазон : Limited
Основные цвета : BT.709
Характеристики трансфера : BT.709
Коэффициенты матрицы : BT.709
Аудио #1
Идентификатор : 304 (0x130)
Идентификатор меню : 2204 (0x89C)
Формат : MPEG Audio
Версия формата : Version 1
Профиль формата : Layer 2
Идентификатор кодека : 3
Продолжительность : 2 ч. 38 м.
Вид битрейта : Постоянный
Битрейт : 192 Кбит/сек
Каналы : 2 канала
Частота : 48,0 КГц
Метод сжатия : С потерями
Размер потока : 218 Мбайт (2%)
Язык : Russian
Аудио #2
Идентификатор : 305 (0x131)
Идентификатор меню : 2204 (0x89C)
Формат : MPEG Audio
Версия формата : Version 1
Профиль формата : Layer 2
Идентификатор кодека : 3
Продолжительность : 2 ч. 38 м.
Вид битрейта : Постоянный
Битрейт : 192 Кбит/сек
Каналы : 2 канала
Частота : 48,0 КГц
Метод сжатия : С потерями
Размер потока : 218 Мбайт (2%)


























02:38:27




   Похожие торренты   Торрент   Размер 
В этой теме нет новых непрочитанных сообщений. Смешанные единоборства. UFC 204: Bisping vs. Henderson II (Main Card) [08.10] (2016) HDTV 1080i

5 | 3

12.18 ГБ

В этой теме нет новых непрочитанных сообщений. MMA. UFC 204: Bisping vs. Henderson 2 + Main Card (Setanta Sport HD) [20.08] (2016) HDStr 1080i

68 | 8

7.97 ГБ

В этой теме нет новых непрочитанных сообщений. Смешанные единоборства. MMA. UFC on FOX 15: Machida vs. Rockhold (Preliminary Card + Main Card) [18.04] (2015) HDTVRip | 60fps

63 | 11

2.29 ГБ

В этой теме нет новых непрочитанных сообщений. Смешанные единоборства. MMA. UFC on FOX 15: Machida vs. Rockhold (Preliminary Card + Main Card) [18.04] (2015) HDTVRip 720p | 60fps

36 | 20

8.31 ГБ

В этой теме нет новых непрочитанных сообщений. Смешанные единоборства. UFC 204: Bisping vs. Henderson II (Main Card) [08.10] (2016) HDTVRip

31 | 9

1.68 ГБ

В этой теме нет новых непрочитанных сообщений. Смешанные единоборства. MMA. UFC on FOX 15: Machida vs. Rockhold (Main Card) [18.04] (2015) WEB-DL 720p

106 | 13

1.7 ГБ

В этой теме нет новых непрочитанных сообщений. Смешанные единоборства. MMA. UFC on FOX 15: Machida vs. Rockhold (Main Card) [18.04] (2015) PDTVRip

39 | 6

1.4 ГБ




Вы не можете начинать темы
Вы не можете отвечать на сообщения
Вы не можете редактировать свои сообщения
Вы не можете удалять свои сообщения
Вы не можете добавлять вложения

Перейти:  
Для Мосгорсуда, Роскомнадзора и рекламодателей: mosgorsud-torrent[собачка]yandex.ru
 Вход
ppkBB3cker v.2 © 2008-2014 @ PPK
[ Time : 0.268s | 17 Queries | GZIP : On ]

Торрент трекер RUTOR.IN, Не можете зайти на rutor.org? Какой новый адрес рутор? Какое зеркало рутор? Не работает rutor.org и зеркала? Тогда наш торрент специально для вас. Rutor.in неофициальное зеркало rutor. В случае если у Вас заблокирован rutor или вдруг Вы не можете на него зайти, то Вы без труда сможете скачать бесплатно и без рекламы последние новинки кино, игр, сериалов и прочего у нас, на Rutor.in. Не нужно использовать прокси, чтобы зайти на рутор, достаточно воспользоваться нашим ресурсом. Все новые фильмы, игры, сериалы, книги и музыка за 2013 и 2014 годы через торрент бесплатно. Скачивайте фильмы в хорошем качестве, игры для пк, xbox, playstation без регистрации. У нас вы найдете новые Зарубежные сериалы и Русские сериалы 2013, 2014, 2015 годов. Оставайтесь с нами, качайте любимые фильмы, игры, сериалы, книги и музыку.