img image001 image001 image001 image001 image001 image001 image001 image001 image001 image001 image001 image001 image001 image001 image001

Planets Sun Sun Sun
Статистика раздачи
Автор: Nickolas3434 | Размер: 2.22 ГБ | Добавлен: 13 июн 2016
Раздают: 51    Качают: 10
Скачать торрент
Скачать торрент
Описание торрента

СообщениеДобавлено: 13 июн 2016 


Название: Футбол. Чемпионат Европы 2016
Год выпуска: 11.06.2016
Комментарий: Профессиональный
Язык комментариев: Русский
Комментатор: Вячеслав Малафеев, Кирилл Набутов
Автор записи/рипа: gmm120880
Описание: 11 июня 2016, суббота. 22:00 МСК
Группа B. 1-й тур
Стадион: Велодром (Марсель, Франция) , вместимость: 67394
Главный судья: Никола Риццоли (Болонья, Италия) Ассистент: Эленито Ди Либераторе (Италия) Ассистент: Мауро Тонолини (Италия) Резервный: Анастасиос Сидиропулос (Греция)
00:51:52 + 00:52:09
Формат : MPEG-TS
Размер файла : 1,11 Гбайт
Продолжительность : 51 м.
Режим общего битрейта : Переменный
Общий поток : 3052 Кбит/сек
Видео
Идентификатор : 80 (0x50)
Идентификатор меню : 1010 (0x3F2)
Формат : AVC
Формат/Информация : Advanced Video Codec
Профиль формата : Main@L3.0
Параметр CABAC формата : Да
Параметр ReFrames формата : 3 кадра
Параметр GOP формата : M=4, N=28
Идентификатор кодека : 27
Продолжительность : 51 м.
Битрейт : 2707 Кбит/сек
Ширина : 720 пикселей
Высота : 576 пикселей
Соотношение сторон : 16:9
Частота кадров : 25,000 кадров/сек
Стандарт вещания : Component
Цветовое пространство : YUV
Субдискретизация насыщенности : 4:2:0
Битовая глубина : 8 бит
Тип развёртки : Чересстрочная
Порядок развёртки : Верхнее поле первое
Бит/(Пиксели*Кадры) : 0.261
Размер потока : 1004 Мбайт (89%)
Основные цвета : BT.601 PAL
Характеристики трансфера : BT.470 System B, BT.470 System G
Коэффициенты матрицы : BT.601
Аудио
Идентификатор : 81 (0x51)
Идентификатор меню : 1010 (0x3F2)
Формат : MPEG Audio
Версия формата : Version 1
Профиль формата : Layer 2
Идентификатор кодека : 3
Продолжительность : 51 м.
Вид битрейта : Постоянный
Битрейт : 192 Кбит/сек
Каналы : 2 канала
Частота : 48,0 КГц
Метод сжатия : С потерями
Задержка видео : -120 мс.
Размер потока : 71,2 Мбайт (6%)
Язык : English
Текст
Идентификатор : 82 (0x52)-100
Идентификатор меню : 1010 (0x3F2)
Формат : Teletext
Язык : Russian
Меню
Идентификатор : 1010 (0x3F2)
Идентификатор меню : 1010 (0x3F2)
Продолжительность : 51 м.
Список : 80 (0x50) (AVC) / 81 (0x51) (MPEG Audio, English) / 82 (0x52) ()
Язык : / English

Качество: IPTV
Формат видео: TS
Видео: 720х576@1047x576, (16:9), 25 fps, AVC, ~2700 Kbps
Аудио: 48 kHz, MP2, 2 ch, ~192.00 kbps avg




   Похожие торренты   Торрент   Размер 
В этой теме нет новых непрочитанных сообщений. Футбол. Чемпионат Европы 2016. Группа В. 1 тур. Англия - Россия [Первый канал] [11.06] (2016) HDTVRip

76 | 7

1.4 ГБ

В этой теме нет новых непрочитанных сообщений. Футбол. Чемпионат Европы 2016. Группа В. 1 тур. Англия - Россия [Первый канал] [11.06] (2016) HDTVRip-AVC

32 | 9

1.6 ГБ

В этой теме нет новых непрочитанных сообщений. Футбол. Чемпионат Европы 2016. Группа B. 1-й тур. Англия - Россия [Первый HD] [11.06] (2016) HDTVRip 720p | 50 fps

63 | 11

3.04 ГБ

В этой теме нет новых непрочитанных сообщений. Футбол. Чемпионат Европы 2016. 1/8 финала. Хорватия - Португалия [Первый канал] [25.06] (2016) IPTV

40 | 7

3.03 ГБ

В этой теме нет новых непрочитанных сообщений. Футбол. Чемпионат Европы 2016. 1/8 финала. Германия - Словакия [Первый канал] [26.06] (2016) IPTV

11 | 3

2.18 ГБ

В этой теме нет новых непрочитанных сообщений. Футбол. Чемпионат Европы 2016. 1/8 финала. Швейцария - Польша [Первый канал] [25.06] (2016) IPTV

3 | 1

3.22 ГБ

В этой теме нет новых непрочитанных сообщений. Футбол. Чемпионат Европы 2016. Финал. Португалия - Франция + Награждение [Первый канал] [10.07] (2016) IPTV

65 | 7

3.59 ГБ




Вы не можете начинать темы
Вы не можете отвечать на сообщения
Вы не можете редактировать свои сообщения
Вы не можете удалять свои сообщения
Вы не можете добавлять вложения

Перейти:  
Для Мосгорсуда, Роскомнадзора и рекламодателей: mosgorsud-torrent[собачка]yandex.ru
 Вход
ppkBB3cker v.2 © 2008-2014 @ PPK
[ Time : 0.032s | 14 Queries | GZIP : Off ]

Торрент трекер RUTOR.IN, Не можете зайти на rutor.org? Какой новый адрес рутор? Какое зеркало рутор? Не работает rutor.org и зеркала? Тогда наш торрент специально для вас. Rutor.in неофициальное зеркало rutor. В случае если у Вас заблокирован rutor или вдруг Вы не можете на него зайти, то Вы без труда сможете скачать бесплатно и без рекламы последние новинки кино, игр, сериалов и прочего у нас, на Rutor.in. Не нужно использовать прокси, чтобы зайти на рутор, достаточно воспользоваться нашим ресурсом. Все новые фильмы, игры, сериалы, книги и музыка за 2013 и 2014 годы через торрент бесплатно. Скачивайте фильмы в хорошем качестве, игры для пк, xbox, playstation без регистрации. У нас вы найдете новые Зарубежные сериалы и Русские сериалы 2013, 2014, 2015 годов. Оставайтесь с нами, качайте любимые фильмы, игры, сериалы, книги и музыку.