img image001 image001 image001 image001 image001 image001 image001 image001 image001 image001 image001 image001 image001 image001 image001

Planets Sun Sun Sun
Статистика раздачи
Автор: Nickolas3434 | Размер: 2.62 ГБ | Добавлен: 30 июн 2016
Раздают: 3    Качают: 0
Скачать торрент
Скачать торрент
Описание торрента

СообщениеДобавлено: 30 июн 2016 

Чемпионат Европы 2016
Группа E. 3-й тур
Швеция - Бельгия


Вид спорта: MMA
Участники: Швеция - Бельгия
Комментарий: Русский, Интершум
Описание: 22 июня 2016, среда. 22:00 МСК
Группа E. 2-й тур
Стадион: Альянц Ривьера (Ницца, Франция) , вместимость: 35624
Главный судья: Феликс Брих (Мюнхен, Германия) Ассистент: Марк Борш (Мёнхенгладбах, Германия)
Ассистент: Штефан Лупп (Цоссен, Германия) Резервный: Матей Юг (Словения)
Автор записи: Mr. Drax

Качество: HDTVRip
Формат видео: MKV
Видео: H.264, 1280x720, 25 fps, 3000 Kbps
Аудио #1: AC3, 48,0 КГц, 2ch stereo, 192 Кбит/сек
Аудио #2: AC3, 48,0 КГц, 2ch stereo, 192 Кбит/сек

Полное имя : H:FootballEURO 2016Euro 2016.Day 3.Group E.Sweden - Belgium.22.06.2016.HDTVRip.720p.mkv
Формат : Matroska
Версия формата : Version 4 / Version 2
Размер файла : 2,62 Гбайт
Продолжительность : 1 ч. 50 м.
Общий поток : 3402 Кбит/сек
Программа кодирования : Lavf57.37.101
Библиотека кодирования : Lavf57.37.101
Видео
Идентификатор : 1
Формат : AVC
Формат/Информация : Advanced Video Codec
Профиль формата : High@L4.1
Параметр CABAC формата : Да
Параметр ReFrames формата : 4 кадра
Идентификатор кодека : V_MPEG4/ISO/AVC
Битрейт : 3000 Кбит/сек
Ширина : 1280 пикселей
Высота : 720 пикселей
Соотношение сторон : 16:9
Режим частоты кадров : Переменный
Цветовое пространство : YUV
Субдискретизация насыщенности : 4:2:0
Битовая глубина : 8 бит
Тип развёртки : Прогрессивная
Библиотека кодирования : x264 core 148 r2694 3b70645
Настройки программы : cabac=1 / ref=3 / deblock=1:0:0 / analyse=0x3:0x113 / me=hex / subme=7 / psy=1 / psy_rd=1.00:0.00 / mixed_ref=1 / me_range=16 / chroma_me=1 / trellis=1 / 8x8dct=1 / cqm=0 / deadzone=21,11 / fast_pskip=1 / chroma_qp_offset=-2 / threads=12 / lookahead_threads=2 / sliced_threads=0 / nr=0 / decimate=1 / interlaced=0 / bluray_compat=0 / constrained_intra=0 / bframes=3 / b_pyramid=2 / b_adapt=1 / b_bias=0 / direct=1 / weightb=1 / open_gop=0 / weightp=2 / keyint=250 / keyint_min=25 / scenecut=40 / intra_refresh=0 / rc_lookahead=40 / rc=abr / mbtree=1 / bitrate=3000 / ratetol=1.0 / qcomp=0.60 / qpmin=0 / qpmax=69 / qpstep=4 / ip_ratio=1.40 / aq=1:1.00
Default : Да
Forced : Нет
DURATION : 01:50:27.605000000
Аудио #1
Идентификатор : 2
Формат : AC-3
Формат/Информация : Audio Coding 3
Расширение режима : CM (complete main)
Параметр Endianness формата : Big
Идентификатор кодека : A_AC3
Продолжительность : 1 ч. 50 м.
Вид битрейта : Постоянный
Битрейт : 192 Кбит/сек
Каналы : 2 канала
Расположение каналов : Front: L R
Частота : 48,0 КГц
Битовая глубина : 32 бит
Метод сжатия : С потерями
Размер потока : 152 Мбайт (6%)
Библиотека кодирования : Lavc57.43.100 ac3
Язык : Russian
Default : Да
Forced : Нет
DURATION : 01:50:27.592000000
Аудио #2
Идентификатор : 3
Формат : AC-3
Формат/Информация : Audio Coding 3
Расширение режима : CM (complete main)
Параметр Endianness формата : Big
Идентификатор кодека : A_AC3
Продолжительность : 1 ч. 50 м.
Вид битрейта : Постоянный
Битрейт : 192 Кбит/сек
Каналы : 2 канала
Расположение каналов : Front: L R
Частота : 48,0 КГц
Битовая глубина : 32 бит
Метод сжатия : С потерями
Размер потока : 152 Мбайт (6%)
Библиотека кодирования : Lavc57.43.100 ac3
Default : Да
Forced : Нет
DURATION : 01:50:27.592000000

01:50:27





   Похожие торренты   Торрент   Размер 
В этой теме нет новых непрочитанных сообщений. Футбол. Чемпионат Европы 2016. Группа E. 3-й тур. Швеция - Бельгия [Матч! HD] [22.06] (2016) HDTVRip 720p | 50 fps

24 | 10

3.29 ГБ

В этой теме нет новых непрочитанных сообщений. Футбол. Чемпионат Европы 2016. Группа E. 3-й тур. Швеция - Бельгия [Матч Футбол 1 HD] [22.06] (2016) HDTVRip-AVC

2 | 1

1.71 ГБ

В этой теме нет новых непрочитанных сообщений. Футбол. Чемпионат Европы 2016. Группа E. 2-й тур. Бельгия - Ирландия [Матч Футбол 1 HD] [18.06] (2016) HDTVRip 720p HEVC | 50 fps

31 | 8

3.18 ГБ

В этой теме нет новых непрочитанных сообщений. Футбол. Чемпионат Европы 2016. 1/4 финала. Уэльс - Бельгия [Россия HD] [01.07] (2016) HDTVRip 720p | 25fps

83 | 1

2.4 ГБ

В этой теме нет новых непрочитанных сообщений. Футбол. Чемпионат Европы 2016. Группа E. 1 тур. Ирландия - Швеция [Матч Футбол 1 HD] [13.06] (2016) HDTVRip 720p HEVC | 50 fps

13 | 2

4.06 ГБ

В этой теме нет новых непрочитанных сообщений. Футбол. Чемпионат Европы 2016. Группа E. 1 тур. Ирландия - Швеция [Матч Футбол 1 HD] [13.06] (2016) HDTVRip 720p

20 | 6

2.35 ГБ

В этой теме нет новых непрочитанных сообщений. Футбол. Чемпионат Европы 2016. Группа E. 2-й тур. Бельгия - Ирландия [Матч Футбол 1 HD] [18.06] (2016) HDTVRip-AVC

31 | 7

1.61 ГБ




Вы не можете начинать темы
Вы не можете отвечать на сообщения
Вы не можете редактировать свои сообщения
Вы не можете удалять свои сообщения
Вы не можете добавлять вложения

Перейти:  
Для Мосгорсуда, Роскомнадзора и рекламодателей: mosgorsud-torrent[собачка]yandex.ru
 Вход
ppkBB3cker v.2 © 2008-2014 @ PPK
[ Time : 0.052s | 15 Queries | GZIP : Off ]

Торрент трекер RUTOR.IN, Не можете зайти на rutor.org? Какой новый адрес рутор? Какое зеркало рутор? Не работает rutor.org и зеркала? Тогда наш торрент специально для вас. Rutor.in неофициальное зеркало rutor. В случае если у Вас заблокирован rutor или вдруг Вы не можете на него зайти, то Вы без труда сможете скачать бесплатно и без рекламы последние новинки кино, игр, сериалов и прочего у нас, на Rutor.in. Не нужно использовать прокси, чтобы зайти на рутор, достаточно воспользоваться нашим ресурсом. Все новые фильмы, игры, сериалы, книги и музыка за 2013 и 2014 годы через торрент бесплатно. Скачивайте фильмы в хорошем качестве, игры для пк, xbox, playstation без регистрации. У нас вы найдете новые Зарубежные сериалы и Русские сериалы 2013, 2014, 2015 годов. Оставайтесь с нами, качайте любимые фильмы, игры, сериалы, книги и музыку.