img image001 image001 image001 image001 image001 image001 image001 image001 image001 image001 image001 image001 image001 image001 image001

Planets Sun Sun Sun
Статистика раздачи
Автор: Nickolas3434 | Размер: 13.92 ГБ | Добавлен: 29 июн 2016
Раздают: 13    Качают: 7
Скачать торрент
Скачать торрент
Описание торрента

СообщениеДобавлено: 29 июн 2016 

Кубок Америки 2016
Финал
Аргентина - Чили


Вид спорта: Футбол
Участники: Аргентина - Чили
Комментарий: Русский, Интершум
Описание: Кубок Америки 2016. Финал
27 июня 2016, понедельник. 03:00 МСК
Стадион: Метлайф - Нью-Мидоулэндс (Ист-Рутерфорд, США) , вместимость: 82566
Автор записи: Mr. Drax

Качество: HDTV
Формат: TS
Видео кодек: H.264
Аудио кодек: MP2
Свойства видео: 1920x1080, 25 fps, ~10.0 Мбит/сек
Свойства аудио RU/INT: 48.0 KHz, 2 ch stereo, 192 kbps

01:43:03


Полное имя : H:FootballCopa America 2016.Final.Argentina - Chile.26.06.2016.HDTV1080i.ts
Формат : MPEG-TS
Размер файла : 13,9 Гбайт
Продолжительность : 3 ч. 2 м.
Режим общего битрейта : Переменный
Общий поток : 10,9 Мбит/сек
Видео
Идентификатор : 204 (0xCC)
Идентификатор меню : 2204 (0x89C)
Формат : AVC
Формат/Информация : Advanced Video Codec
Профиль формата : High@L4
Параметр CABAC формата : Да
Параметр ReFrames формата : 4 кадра
Идентификатор кодека : 27
Продолжительность : 3 ч. 2 м.
Битрейт : 9963 Кбит/сек
Ширина : 1920 пикселей
Высота : 1080 пикселей
Соотношение сторон : 16:9
Частота кадров : 25,000 кадров/сек
Стандарт вещания : Component
Цветовое пространство : YUV
Субдискретизация насыщенности : 4:2:0
Битовая глубина : 8 бит
Тип развёртки : Чересстрочная
Порядок развёртки : Верхнее поле первое
Бит/(Пиксели*Кадры) : 0.192
Размер потока : 12,7 Гбайт (91%)
Цветовой диапазон : Limited
Основные цвета : BT.709
Характеристики трансфера : BT.709
Коэффициенты матрицы : BT.709
Аудио #1
Идентификатор : 304 (0x130)
Идентификатор меню : 2204 (0x89C)
Формат : MPEG Audio
Версия формата : Version 1
Профиль формата : Layer 2
Идентификатор кодека : 3
Продолжительность : 3 ч. 2 м.
Вид битрейта : Постоянный
Битрейт : 192 Кбит/сек
Каналы : 2 канала
Частота : 48,0 КГц
Метод сжатия : С потерями
Размер потока : 251 Мбайт (2%)
Язык : Russian
Аудио #2
Идентификатор : 305 (0x131)
Идентификатор меню : 2204 (0x89C)
Формат : MPEG Audio
Версия формата : Version 1
Профиль формата : Layer 2
Идентификатор кодека : 3
Продолжительность : 3 ч. 2 м.
Вид битрейта : Постоянный
Битрейт : 192 Кбит/сек
Каналы : 2 канала
Частота : 48,0 КГц
Метод сжатия : С потерями
Размер потока : 251 Мбайт (2%)
Текст
Идентификатор : 306 (0x132)-888
Идентификатор меню : 2204 (0x89C)
Формат : Teletext Subtitle
Язык : Russian
Язык, дополнительно : For hearing impaired people
Меню
Идентификатор : 104 (0x68)
Идентификатор меню : 2204 (0x89C)
Продолжительность : 3 ч. 2 м.
Список : 204 (0xCC) (AVC) / 304 (0x130) (MPEG Audio, Russian) / 305 (0x131) (MPEG Audio) / 306 (0x132) ()
Язык : / Russian



   Похожие торренты   Торрент   Размер 
В этой теме нет новых непрочитанных сообщений. Футбол. Кубок Америки 2016. Финал. Аргентина - Чили [Матч ТВ HD] [26.06] (2016) 720p | 25fps (RU|INT)

36 | 1

4.37 ГБ

В этой теме нет новых непрочитанных сообщений. Футбол. Кубок Америки 2015. Плей-офф. Финал. Чили - Аргентина [04.07] (2015) HDTV 1080i

100 | 9

18.48 ГБ

В этой теме нет новых непрочитанных сообщений. Футбол. Кубок Америки 2015. Плей-офф. Финал. Чили - Аргентина [04.07] (2015) HDTVRip 720p | 50 fps

110 | 3

5.47 ГБ

В этой теме нет новых непрочитанных сообщений. Футбол. Кубок Америки 2015. Плей-офф. Финал. Чили - Аргентина [04.07] (2015) HDTVRip 400p

144 | 17

2.11 ГБ

В этой теме нет новых непрочитанных сообщений. Футбол. Кубок Америки 2015. Плей-офф. Финал. Чили - Аргентина [04.07] (2015) HDTVRip от runetzone

699 | 34

2.73 ГБ

В этой теме нет новых непрочитанных сообщений. Футбол. Кубок Конфедераций 2017. Финал. Чили - Германия + Награждение [Матч! Футбол 1 HD] [02.07] (2017) HDTV 1080i

0 | 0

9.29 ГБ

В этой теме нет новых непрочитанных сообщений. Футбол. Кубок Америки 2015. Плей-офф. 1/2 Финала. Чили - Перу [30.06] (2015) HDTV 1080i

74 | 58

8.55 ГБ




Вы не можете начинать темы
Вы не можете отвечать на сообщения
Вы не можете редактировать свои сообщения
Вы не можете удалять свои сообщения
Вы не можете добавлять вложения

Перейти:  
Для Мосгорсуда, Роскомнадзора и рекламодателей: mosgorsud-torrent[собачка]yandex.ru
 Вход
ppkBB3cker v.2 © 2008-2014 @ PPK
[ Time : 0.040s | 16 Queries | GZIP : Off ]

Торрент трекер RUTOR.IN, Не можете зайти на rutor.org? Какой новый адрес рутор? Какое зеркало рутор? Не работает rutor.org и зеркала? Тогда наш торрент специально для вас. Rutor.in неофициальное зеркало rutor. В случае если у Вас заблокирован rutor или вдруг Вы не можете на него зайти, то Вы без труда сможете скачать бесплатно и без рекламы последние новинки кино, игр, сериалов и прочего у нас, на Rutor.in. Не нужно использовать прокси, чтобы зайти на рутор, достаточно воспользоваться нашим ресурсом. Все новые фильмы, игры, сериалы, книги и музыка за 2013 и 2014 годы через торрент бесплатно. Скачивайте фильмы в хорошем качестве, игры для пк, xbox, playstation без регистрации. У нас вы найдете новые Зарубежные сериалы и Русские сериалы 2013, 2014, 2015 годов. Оставайтесь с нами, качайте любимые фильмы, игры, сериалы, книги и музыку.
cron