img image001 image001 image001 image001 image001 image001 image001 image001 image001 image001 image001 image001 image001 image001 image001

Planets Sun Sun Sun
Статистика раздачи
Автор: Nickolas3434 | Размер: 4.37 ГБ | Добавлен: 30 июн 2016
Раздают: 56    Качают: 2
Скачать торрент
Скачать торрент
Описание торрента

СообщениеДобавлено: 30 июн 2016 

Кубок Америки 2016
Финал
Аргентина - Чили


Вид спорта: Футбол
Участники: Аргентина - Чили
Комментарий: Русский, Интершум
Описание: Кубок Америки 2016. Финал
27 июня 2016, понедельник. 03:00 МСК
Стадион: Метлайф - Нью-Мидоулэндс (Ист-Рутерфорд, США) , вместимость: 82566
Автор записи: Mr. Drax

Качество: HDTVRip
Формат видео: MKV
Видео: H.264, 1280x720, 25 fps, 3000 Kbps
Свойства аудио RU/INT: 48.0 KHz, 2 ch stereo, 192 kbps

01:43:03



Полное имя : E:SportCopa America 2016Copa America 2016.Final.Argentina - Chile.26.06.2016.HDTVRip.720p.mkv
Формат : Matroska
Версия формата : Version 4 / Version 2
Размер файла : 4,37 Гбайт
Продолжительность : 3 ч. 2 м.
Общий поток : 3419 Кбит/сек
Программа кодирования : Lavf57.37.101
Библиотека кодирования : Lavf57.37.101
Видео
Идентификатор : 1
Формат : AVC
Формат/Информация : Advanced Video Codec
Профиль формата : High@L4.1
Параметр CABAC формата : Да
Параметр ReFrames формата : 4 кадра
Идентификатор кодека : V_MPEG4/ISO/AVC
Битрейт : 3000 Кбит/сек
Ширина : 1280 пикселей
Высота : 720 пикселей
Соотношение сторон : 16:9
Режим частоты кадров : Переменный
Цветовое пространство : YUV
Субдискретизация насыщенности : 4:2:0
Битовая глубина : 8 бит
Тип развёртки : Прогрессивная
Библиотека кодирования : x264 core 148 r2694 3b70645
Настройки программы : cabac=1 / ref=3 / deblock=1:0:0 / analyse=0x3:0x113 / me=hex / subme=7 / psy=1 / psy_rd=1.00:0.00 / mixed_ref=1 / me_range=16 / chroma_me=1 / trellis=1 / 8x8dct=1 / cqm=0 / deadzone=21,11 / fast_pskip=1 / chroma_qp_offset=-2 / threads=12 / lookahead_threads=2 / sliced_threads=0 / nr=0 / decimate=1 / interlaced=0 / bluray_compat=0 / constrained_intra=0 / bframes=3 / b_pyramid=2 / b_adapt=1 / b_bias=0 / direct=1 / weightb=1 / open_gop=0 / weightp=2 / keyint=250 / keyint_min=25 / scenecut=40 / intra_refresh=0 / rc_lookahead=40 / rc=abr / mbtree=1 / bitrate=3000 / ratetol=1.0 / qcomp=0.60 / qpmin=0 / qpmax=69 / qpstep=4 / ip_ratio=1.40 / aq=1:1.00
Default : Да
Forced : Нет
DURATION : 03:02:58.365000000
Аудио #1
Идентификатор : 2
Формат : AC-3
Формат/Информация : Audio Coding 3
Расширение режима : CM (complete main)
Параметр Endianness формата : Big
Идентификатор кодека : A_AC3
Продолжительность : 3 ч. 2 м.
Вид битрейта : Постоянный
Битрейт : 192 Кбит/сек
Каналы : 2 канала
Расположение каналов : Front: L R
Частота : 48,0 КГц
Битовая глубина : 32 бит
Метод сжатия : С потерями
Размер потока : 251 Мбайт (6%)
Библиотека кодирования : Lavc57.43.100 ac3
Язык : Russian
Default : Да
Forced : Нет
DURATION : 03:02:58.400000000
Аудио #2
Идентификатор : 3
Формат : AC-3
Формат/Информация : Audio Coding 3
Расширение режима : CM (complete main)
Параметр Endianness формата : Big
Идентификатор кодека : A_AC3
Продолжительность : 3 ч. 2 м.
Вид битрейта : Постоянный
Битрейт : 192 Кбит/сек
Каналы : 2 канала
Расположение каналов : Front: L R
Частота : 48,0 КГц
Битовая глубина : 32 бит
Метод сжатия : С потерями
Размер потока : 251 Мбайт (6%)
Библиотека кодирования : Lavc57.43.100 ac3
Default : Да
Forced : Нет
DURATION : 03:02:58.432000000



   Похожие торренты   Торрент   Размер 
В этой теме нет новых непрочитанных сообщений. Футбол. Кубок Америки 2016. Финал. Аргентина - Чили [Матч ТВ HD] [26.06] (2016) HDTV 1080i (RU|INT)

24 | 5

13.92 ГБ

В этой теме нет новых непрочитанных сообщений. Кубок Америки 2016. 1/2 финала. США - Аргентина [Футбол 2 HD] [22.06] (2016) HDTVRip 720p | 25fps

3 | 0

2.31 ГБ

В этой теме нет новых непрочитанных сообщений. Кубок Америки 2016. 1/2 финала. США - Аргентина [Футбол 2 HD] [21.06] (2016) HDTVRip 720p | 25fps

8 | 0

2.27 ГБ

В этой теме нет новых непрочитанных сообщений. Футбол. Кубок Америки 2015. Плей-офф. Финал. Чили - Аргентина [04.07] (2015) HDTVRip 720p | 50 fps

110 | 3

5.47 ГБ

В этой теме нет новых непрочитанных сообщений. Футбол. Кубок Америки 2015. Плей-офф. Финал. Чили - Аргентина [04.07] (2015) HDTV 1080i

100 | 9

18.48 ГБ

В этой теме нет новых непрочитанных сообщений. Футбол. Кубок Америки 2015. Плей-офф. Финал. Чили - Аргентина [04.07] (2015) HDTVRip от runetzone

699 | 34

2.73 ГБ

В этой теме нет новых непрочитанных сообщений. Футбол. Кубок Америки 2015. Плей-офф. Финал. Чили - Аргентина [04.07] (2015) HDTVRip 400p

144 | 17

2.11 ГБ




Вы не можете начинать темы
Вы не можете отвечать на сообщения
Вы не можете редактировать свои сообщения
Вы не можете удалять свои сообщения
Вы не можете добавлять вложения

Перейти:  
Для Мосгорсуда, Роскомнадзора и рекламодателей: mosgorsud-torrent[собачка]yandex.ru
 Вход
ppkBB3cker v.2 © 2008-2014 @ PPK
[ Time : 0.056s | 15 Queries | GZIP : Off ]

Торрент трекер RUTOR.IN, Не можете зайти на rutor.org? Какой новый адрес рутор? Какое зеркало рутор? Не работает rutor.org и зеркала? Тогда наш торрент специально для вас. Rutor.in неофициальное зеркало rutor. В случае если у Вас заблокирован rutor или вдруг Вы не можете на него зайти, то Вы без труда сможете скачать бесплатно и без рекламы последние новинки кино, игр, сериалов и прочего у нас, на Rutor.in. Не нужно использовать прокси, чтобы зайти на рутор, достаточно воспользоваться нашим ресурсом. Все новые фильмы, игры, сериалы, книги и музыка за 2013 и 2014 годы через торрент бесплатно. Скачивайте фильмы в хорошем качестве, игры для пк, xbox, playstation без регистрации. У нас вы найдете новые Зарубежные сериалы и Русские сериалы 2013, 2014, 2015 годов. Оставайтесь с нами, качайте любимые фильмы, игры, сериалы, книги и музыку.