img image001 image001 image001 image001 image001 image001 image001 image001 image001 image001 image001 image001 image001 image001 image001

Planets Sun Sun Sun
Статистика раздачи
Автор: Nickolas3434 | Размер: 9.94 ГБ | Добавлен: 30 июн 2016
Раздают: 11    Качают: 1
Скачать торрент
Скачать торрент
Описание торрента

СообщениеДобавлено: 30 июн 2016 

Чемпионат Европы 2016
1/8 финала
Англия - Исландия


Вид спорта: Футбол
Участники: Англия - Исландия
Комментарий: Русский
Описание: 27 июня 2016, понедельник. 22:00 МСК
1/8 финала
Стадион: Альянц Ривьера (Ницца, Франция) , 33 901 зритель (95 % при вместимости 35 624)
Главный судья: Дамир Скомина (Копер, Словения) Ассистент: Юре Прапротник (Словения)
Ассистент: Роберт Вукан (Словения) Резервный: Карлос Веласко Карбальо (Мадрид, Испания)
Автор записи: Mr. Drax

Качество: HDTV
Формат видео: TS
Видео: 1920x1080, 25 fps, ~12.2 Мбит/сек
Аудио #1: 48.0 KHz, 2 ch stereo, 192 kbps

01:48:58


Полное имя : H:FootballEURO 2016Euro 2016.1-8 finals.England - Iceland.27.06.2016.HDTV1080i.ts
Формат : MPEG-TS
Размер файла : 9,94 Гбайт
Продолжительность : 1 ч. 48 м.
Режим общего битрейта : Переменный
Общий поток : 13,1 Мбит/сек
Видео
Идентификатор : 206 (0xCE)
Идентификатор меню : 20106 (0x4E8A)
Формат : AVC
Формат/Информация : Advanced Video Codec
Профиль формата : High@L4
Параметр CABAC формата : Да
Параметр ReFrames формата : 4 кадра
Идентификатор кодека : 27
Продолжительность : 1 ч. 48 м.
Битрейт : 12,2 Мбит/сек
Ширина : 1920 пикселей
Высота : 1080 пикселей
Соотношение сторон : 16:9
Частота кадров : 25,000 кадров/сек
Цветовое пространство : YUV
Субдискретизация насыщенности : 4:2:0
Битовая глубина : 8 бит
Тип развёртки : Чересстрочная
Порядок развёртки : Верхнее поле первое
Бит/(Пиксели*Кадры) : 0.236
Размер потока : 9,31 Гбайт (94%)
Цветовой диапазон : Limited
Основные цвета : BT.709
Характеристики трансфера : BT.709
Коэффициенты матрицы : BT.709
Аудио
Идентификатор : 306 (0x132)
Идентификатор меню : 20106 (0x4E8A)
Формат : MPEG Audio
Версия формата : Version 1
Профиль формата : Layer 2
Идентификатор кодека : 3
Продолжительность : 1 ч. 48 м.
Вид битрейта : Постоянный
Битрейт : 192 Кбит/сек
Каналы : 2 канала
Частота : 48,0 КГц
Метод сжатия : С потерями
Размер потока : 150 Мбайт (1%)
Язык : Russian



   Похожие торренты   Торрент   Размер 
В этой теме нет новых непрочитанных сообщений. Футбол. Чемпионат Европы 2016. 1/8 финала. Англия - Исландия + Превью [Матч Футбол 1 HD] [27.06] (2016) HDTV 1080i

26 | 5

10.47 ГБ

В этой теме нет новых непрочитанных сообщений. Футбол. Чемпионат Европы 2016. 1/8 финала. Англия - Исландия [Россия HD] [27.06] (2016) HDTVRip 720p | 25fps

30 | 1

2.45 ГБ

В этой теме нет новых непрочитанных сообщений. Футбол. Чемпионат Европы 2016. 1/4 финала. Франция - Исландия + Превью [Матч Футбол 1 HD] [03.07] (2016) HDTV 1080i

16 | 4

12.2 ГБ

В этой теме нет новых непрочитанных сообщений. Футбол. Чемпионат Европы 2016. 1/8 финала. Англия - Исландия + Превью [Матч Футбол 1 HD] [27.06] (2016) HDTVRip 720p | 50 fps

99 | 9

4.41 ГБ

В этой теме нет новых непрочитанных сообщений. Футбол. Чемпионат Европы 2016. 1/8 финала. Англия - Исландия + Превью [Матч Футбол 1 HD] [27.06] (2016) HDTVRip

17 | 1

2.01 ГБ

В этой теме нет новых непрочитанных сообщений. Футбол. Чемпионат Европы 2016. 1/8 финала. Англия - Исландия + Превью [Матч Футбол 1 HD] [27.06] (2016) IPTVRip-AVC

31 | 6

2.34 ГБ

В этой теме нет новых непрочитанных сообщений. Футбол. Чемпионат Европы 2016. 1/4 финала. Франция - Исландия [Россия HD] [03.07] (2016) HDTVRip 720p | 25fps

28 | 1

2.43 ГБ




Вы не можете начинать темы
Вы не можете отвечать на сообщения
Вы не можете редактировать свои сообщения
Вы не можете удалять свои сообщения
Вы не можете добавлять вложения

Перейти:  
Для Мосгорсуда, Роскомнадзора и рекламодателей: mosgorsud-torrent[собачка]yandex.ru
 Вход
ppkBB3cker v.2 © 2008-2014 @ PPK
[ Time : 1.328s | 15 Queries | GZIP : Off ]

Торрент трекер RUTOR.IN, Не можете зайти на rutor.org? Какой новый адрес рутор? Какое зеркало рутор? Не работает rutor.org и зеркала? Тогда наш торрент специально для вас. Rutor.in неофициальное зеркало rutor. В случае если у Вас заблокирован rutor или вдруг Вы не можете на него зайти, то Вы без труда сможете скачать бесплатно и без рекламы последние новинки кино, игр, сериалов и прочего у нас, на Rutor.in. Не нужно использовать прокси, чтобы зайти на рутор, достаточно воспользоваться нашим ресурсом. Все новые фильмы, игры, сериалы, книги и музыка за 2013 и 2014 годы через торрент бесплатно. Скачивайте фильмы в хорошем качестве, игры для пк, xbox, playstation без регистрации. У нас вы найдете новые Зарубежные сериалы и Русские сериалы 2013, 2014, 2015 годов. Оставайтесь с нами, качайте любимые фильмы, игры, сериалы, книги и музыку.