img image001 image001 image001 image001 image001 image001 image001 image001 image001 image001 image001 image001 image001 image001 image001

Planets Sun Sun Sun
Статистика раздачи
Автор: Nickolas3434 | Размер: 13.72 ГБ | Добавлен: 02 июл 2016
Раздают: 2    Качают: 1
Скачать торрент
Скачать торрент
Описание торрента

СообщениеДобавлено: 02 июл 2016 

Чемпионат Европы 2016
1/4 финала
Польша - Португалия


Вид спорта: Футбол
Участники: Польша - Португалия
Комментарий: Русский
Описание: 30 июня 2016, четверг. 22:00 МСК
1/4 финала
Стадион: Велодром (Марсель, Франция) , вместимость: 67394
Главный судья: Феликс Брих (Мюнхен, Германия) Ассистент: Марк Борш (Мёнхенгладбах, Германия)
Ассистент: Штефан Лупп (Цоссен, Германия) Резервный: Милорад Мажич (Врбас, Сербия)
Автор записи: Mr. Drax

Качество: HDTV
Формат видео: TS
Видео: 1920x1080, 25 fps, ~11.6 Мбит/сек
Аудио #1: MP2, 48.0 KHz, 2 ch stereo, 192 kbps

Аудио #1: AC3, 48.0 KHz, 6 ch stereo, 384 kbps
02:33:19


Полное имя : H:FootballEURO 2016Euro 2016.1-4 finals.Poland - Portugal.30.06.2016.HDTV1080i.ts
Формат : MPEG-TS
Размер файла : 13,7 Гбайт
Продолжительность : 2 ч. 33 м.
Режим общего битрейта : Переменный
Общий поток : 12,8 Мбит/сек
Видео
Идентификатор : 205 (0xCD)
Идентификатор меню : 20105 (0x4E89)
Формат : AVC
Формат/Информация : Advanced Video Codec
Профиль формата : High@L4
Параметр CABAC формата : Да
Параметр ReFrames формата : 4 кадра
Идентификатор кодека : 27
Продолжительность : 2 ч. 33 м.
Битрейт : 11,6 Мбит/сек
Ширина : 1920 пикселей
Высота : 1080 пикселей
Соотношение сторон : 16:9
Частота кадров : 25,000 кадров/сек
Цветовое пространство : YUV
Субдискретизация насыщенности : 4:2:0
Битовая глубина : 8 бит
Тип развёртки : Чересстрочная
Порядок развёртки : Верхнее поле первое
Бит/(Пиксели*Кадры) : 0.224
Размер потока : 12,4 Гбайт (91%)
Цветовой диапазон : Limited
Основные цвета : BT.709
Характеристики трансфера : BT.709
Коэффициенты матрицы : BT.709
Аудио #1
Идентификатор : 305 (0x131)
Идентификатор меню : 20105 (0x4E89)
Формат : AC-3
Формат/Информация : Audio Coding 3
Расширение режима : CM (complete main)
Параметр Endianness формата : Big
Идентификатор кодека : 6
Продолжительность : 2 ч. 33 м.
Вид битрейта : Постоянный
Битрейт : 384 Кбит/сек
Каналы : 6 каналов
Расположение каналов : Front: L C R, Side: L R, LFE
Частота : 48,0 КГц
Метод сжатия : С потерями
Размер потока : 421 Мбайт (3%)
Язык : Russian
Аудио #2
Идентификатор : 306 (0x132)
Идентификатор меню : 20105 (0x4E89)
Формат : MPEG Audio
Версия формата : Version 1
Профиль формата : Layer 2
Идентификатор кодека : 3
Продолжительность : 2 ч. 33 м.
Вид битрейта : Постоянный
Битрейт : 192 Кбит/сек
Каналы : 2 канала
Частота : 48,0 КГц
Метод сжатия : С потерями
Размер потока : 211 Мбайт (1%)
Язык : Russian
Текст
Идентификатор : 307 (0x133)-888
Идентификатор меню : 20105 (0x4E89)
Формат : Teletext Subtitle
Язык : Russian
Язык, дополнительно : For hearing impaired people
Меню
Идентификатор : 105 (0x69)
Идентификатор меню : 20105 (0x4E89)
Продолжительность : 2 ч. 33 м.
Список : 205 (0xCD) (AVC) / 305 (0x131) (AC-3, Russian) / 306 (0x132) (MPEG Audio, Russian) / 307 (0x133) ()
Язык : / Russian / Russian



   Похожие торренты   Торрент   Размер 
В этой теме нет новых непрочитанных сообщений. Футбол. Чемпионат Европы 2016. 1/4 финала. Польша - Португалия + Превью [Матч Футбол 1 HD] [30.06] (2016) HDTV 1080i

8 | 3

14.53 ГБ

В этой теме нет новых непрочитанных сообщений. Футбол. Чемпионат Европы 2016. 1/4 финала. Польша - Португалия [Первый HD] [30.06] (2016) HDTVRip 720p | 25fps

15 | 2

3.63 ГБ

В этой теме нет новых непрочитанных сообщений. Футбол. Чемпионат Европы 2016. 1/8 финала. Швейцария - Польша + Превью [Матч Футбол 1 HD] [25.06] (2016) HDTV 1080i

5 | 1

15.12 ГБ

В этой теме нет новых непрочитанных сообщений. Футбол. Чемпионат Европы 2016. 1/4 финала. Польша - Португалия + Превью [Матч Футбол 1 HD] [30.06] (2016) HDTVRip 720p | 50 fps

57 | 8

6.05 ГБ

В этой теме нет новых непрочитанных сообщений. Футбол. Чемпионат Европы 2016. 1/4 финала. Польша - Португалия + Превью [Матч Футбол 1 HD] [30.06] (2016) HDTVRip 720p HEVC | 50 fps

5 | 3

3.74 ГБ

В этой теме нет новых непрочитанных сообщений. Футбол. Чемпионат Европы 2016. 1/4 финала. Польша - Португалия + Превью [Матч Футбол 1 HD] [30.06] (2016) HDTVRip

21 | 2

2.77 ГБ

В этой теме нет новых непрочитанных сообщений. Футбол. Чемпионат Европы 2016. 1/4 финала. Польша - Португалия + Превью [Матч Футбол 1 HD] [30.06] (2016) HDTVRip-AVC

3 | 1

2.77 ГБ




Вы не можете начинать темы
Вы не можете отвечать на сообщения
Вы не можете редактировать свои сообщения
Вы не можете удалять свои сообщения
Вы не можете добавлять вложения

Перейти:  
Для Мосгорсуда, Роскомнадзора и рекламодателей: mosgorsud-torrent[собачка]yandex.ru
 Вход
ppkBB3cker v.2 © 2008-2014 @ PPK
[ Time : 0.065s | 15 Queries | GZIP : Off ]

Торрент трекер RUTOR.IN, Не можете зайти на rutor.org? Какой новый адрес рутор? Какое зеркало рутор? Не работает rutor.org и зеркала? Тогда наш торрент специально для вас. Rutor.in неофициальное зеркало rutor. В случае если у Вас заблокирован rutor или вдруг Вы не можете на него зайти, то Вы без труда сможете скачать бесплатно и без рекламы последние новинки кино, игр, сериалов и прочего у нас, на Rutor.in. Не нужно использовать прокси, чтобы зайти на рутор, достаточно воспользоваться нашим ресурсом. Все новые фильмы, игры, сериалы, книги и музыка за 2013 и 2014 годы через торрент бесплатно. Скачивайте фильмы в хорошем качестве, игры для пк, xbox, playstation без регистрации. У нас вы найдете новые Зарубежные сериалы и Русские сериалы 2013, 2014, 2015 годов. Оставайтесь с нами, качайте любимые фильмы, игры, сериалы, книги и музыку.