img image001 image001 image001 image001 image001 image001 image001 image001 image001 image001 image001 image001 image001 image001 image001

Planets Sun Sun Sun
Статистика раздачи
Автор: Nickolas3434 | Размер: 10.02 ГБ | Добавлен: 03 июл 2016
Раздают: 19    Качают: 5
Скачать торрент
Скачать торрент
Описание торрента

СообщениеДобавлено: 03 июл 2016 

Чемпионат Европы 2016
1/4 финала
Уэльс - Бельгия


Вид спорта: Футбол
Участники: Уэльс - Бельгия
Комментарий: Русский
Описание: 01 июля 2016, пятница. 22:00 МСК
1/4 финала
Стадион: Пьер-Моруа (Вильнёв-д'Аск, Франция) , 45 936 зрителей (92 % при вместимости 50 186)
Главный судья: Дамир Скомина (Копер, Словения) Ассистент: Юре Прапротник (Словения)
Ассистент: Роберт Вукан (Словения) Резервный: Никола Риццоли (Болонья, Италия)
Автор записи: Mr. Drax

Качество: HDTV
Формат видео: TS
Видео: 1920x1080, 25 fps, ~12.5 Мбит/сек
Аудио: MP2, 48.0 KHz, 2 ch stereo, 192 kbps

01:47:14
[img]http://i5.imageban.ru/out/2016/07/02/e54558e9b0a2c54289951374a3755963.

Полное имя : H:FootballEURO 2016Euro 2016.1-4 finals.Wales - Belgium.01.07.2016.HDTV1080i.ts
Формат : MPEG-TS
Размер файла : 10,0 Гбайт
Продолжительность : 1 ч. 47 м.
Режим общего битрейта : Переменный
Общий поток : 13,4 Мбит/сек
Видео
Идентификатор : 206 (0xCE)
Идентификатор меню : 20106 (0x4E8A)
Формат : AVC
Формат/Информация : Advanced Video Codec
Профиль формата : High@L4
Параметр CABAC формата : Да
Параметр ReFrames формата : 4 кадра
Идентификатор кодека : 27
Продолжительность : 1 ч. 47 м.
Битрейт : 12,5 Мбит/сек
Ширина : 1920 пикселей
Высота : 1080 пикселей
Соотношение сторон : 16:9
Частота кадров : 25,000 кадров/сек
Цветовое пространство : YUV
Субдискретизация насыщенности : 4:2:0
Битовая глубина : 8 бит
Тип развёртки : Чересстрочная
Порядок развёртки : Верхнее поле первое
Бит/(Пиксели*Кадры) : 0.241
Размер потока : 9,38 Гбайт (94%)
Цветовой диапазон : Limited
Основные цвета : BT.709
Характеристики трансфера : BT.709
Коэффициенты матрицы : BT.709
Аудио
Идентификатор : 306 (0x132)
Идентификатор меню : 20106 (0x4E8A)
Формат : MPEG Audio
Версия формата : Version 1
Профиль формата : Layer 2
Идентификатор кодека : 3
Продолжительность : 1 ч. 47 м.
Вид битрейта : Постоянный
Битрейт : 192 Кбит/сек
Каналы : 2 канала
Частота : 48,0 КГц
Метод сжатия : С потерями
Размер потока : 147 Мбайт (1%)
Язык : Russian



   Похожие торренты   Торрент   Размер 
В этой теме нет новых непрочитанных сообщений. Футбол. Чемпионат Европы 2016. 1/4 финала. Уэльс - Бельгия + Превью [Матч Футбол 1 HD] [01.07] (2016) HDTV 1080i

28 | 5

11.95 ГБ

В этой теме нет новых непрочитанных сообщений. Футбол. Чемпионат Европы 2016. 1/4 финала. Уэльс - Бельгия [Россия HD] [01.07] (2016) HDTVRip 720p | 25fps

83 | 1

2.4 ГБ

В этой теме нет новых непрочитанных сообщений. Футбол. Чемпионат Европы 2016. Квалификация. Группа B. 6-й тур. Уэльс – Бельгия [12.06] (2015) HDTV 1080i

7 | 0

8.7 ГБ

В этой теме нет новых непрочитанных сообщений. Футбол. Чемпионат Европы 2016. 1/4 финала. Уэльс - Бельгия + Превью [Матч Футбол 1 HD] [01.07] (2016) HDTVRip 720p | 50 fps

109 | 9

4.66 ГБ

В этой теме нет новых непрочитанных сообщений. Футбол. Чемпионат Европы 2016. 1/4 финала. Уэльс - Бельгия + Превью [Матч Футбол 1 HD] [01.07] (2016) HDTVRip 720p HEVC | 50 fps

85 | 12

2.06 ГБ

В этой теме нет новых непрочитанных сообщений. Футбол. Чемпионат Европы 2016. 1/4 финала. Уэльс - Бельгия [Матч Футбол 1 HD] [01.07] (2016) HDTVRip-AVC

25 | 1

1.43 ГБ

В этой теме нет новых непрочитанных сообщений. Футбол. Чемпионат Европы 2016. 1/4 финала. Уэльс - Бельгия [Матч Футбол 1 HD] [01.07] (2016) HDTVRip

84 | 1

1.44 ГБ




Вы не можете начинать темы
Вы не можете отвечать на сообщения
Вы не можете редактировать свои сообщения
Вы не можете удалять свои сообщения
Вы не можете добавлять вложения

Перейти:  
Для Мосгорсуда, Роскомнадзора и рекламодателей: mosgorsud-torrent[собачка]yandex.ru
 Вход
ppkBB3cker v.2 © 2008-2014 @ PPK
[ Time : 0.027s | 15 Queries | GZIP : On ]

Торрент трекер RUTOR.IN, Не можете зайти на rutor.org? Какой новый адрес рутор? Какое зеркало рутор? Не работает rutor.org и зеркала? Тогда наш торрент специально для вас. Rutor.in неофициальное зеркало rutor. В случае если у Вас заблокирован rutor или вдруг Вы не можете на него зайти, то Вы без труда сможете скачать бесплатно и без рекламы последние новинки кино, игр, сериалов и прочего у нас, на Rutor.in. Не нужно использовать прокси, чтобы зайти на рутор, достаточно воспользоваться нашим ресурсом. Все новые фильмы, игры, сериалы, книги и музыка за 2013 и 2014 годы через торрент бесплатно. Скачивайте фильмы в хорошем качестве, игры для пк, xbox, playstation без регистрации. У нас вы найдете новые Зарубежные сериалы и Русские сериалы 2013, 2014, 2015 годов. Оставайтесь с нами, качайте любимые фильмы, игры, сериалы, книги и музыку.