img image001 image001 image001 image001 image001 image001 image001 image001 image001 image001 image001 image001 image001 image001 image001

Planets Sun Sun Sun
Статистика раздачи
Автор: Nickolas3434 | Размер: 9.36 ГБ | Добавлен: 12 июл 2016
Раздают: 38    Качают: 4
Скачать торрент
Скачать торрент
Описание торрента

СообщениеДобавлено: 12 июл 2016 

UFC Fight Night Las Vegas
Dos Anjos vs Alvarez

Вид спорта: MMA
Участники:
Eddie Alvarez vs Rafael dos Anjos TITLE FIGHT
Derrick Lewis vs Roy Nelson
Alan Jouban vs Belal Muhammad
Joseph Duffy vs Mitch Clarke
Alberto Mina vs Mike Pyle
Комментарий: Русский, Интершум
Описание: UFC Fight Night Las Vegas / Dos Anjos vs Alvarez / Main Card
Автор записи: Mr. Drax

Качество: HDTV
Формат: TS
Видео: 1920x1080i, H.264, 25 fps, ~ 11,4 Mbps
Аудио #1: MP2, 48 kHz, 2 ch, ~192.00 kbps
Аудио #2: MP2, 48 kHz, 2 ch, ~192.00 kbps


























01:47:50

Полное имя : H:Other sportsFight Nights Las Vegas. Dos Anjos vs Alvarez. 1080i.ts
Формат : MPEG-TS
Размер файла : 9,36 Гбайт
Продолжительность : 1 ч. 47 м.
Режим общего битрейта : Переменный
Общий поток : 12,4 Мбит/сек
Видео
Идентификатор : 204 (0xCC)
Идентификатор меню : 2204 (0x89C)
Формат : AVC
Формат/Информация : Advanced Video Codec
Профиль формата : High@L4
Параметр CABAC формата : Да
Параметр ReFrames формата : 4 кадра
Идентификатор кодека : 27
Продолжительность : 1 ч. 47 м.
Битрейт : 11,4 Мбит/сек
Ширина : 1920 пикселей
Высота : 1080 пикселей
Соотношение сторон : 16:9
Частота кадров : 25,000 кадров/сек
Стандарт вещания : Component
Цветовое пространство : YUV
Субдискретизация насыщенности : 4:2:0
Битовая глубина : 8 бит
Тип развёртки : Чересстрочная
Порядок развёртки : Верхнее поле первое
Бит/(Пиксели*Кадры) : 0.220
Размер потока : 8,61 Гбайт (92%)
Цветовой диапазон : Limited
Основные цвета : BT.709
Характеристики трансфера : BT.709
Коэффициенты матрицы : BT.709
Аудио #1
Идентификатор : 304 (0x130)
Идентификатор меню : 2204 (0x89C)
Формат : MPEG Audio
Версия формата : Version 1
Профиль формата : Layer 2
Идентификатор кодека : 3
Продолжительность : 1 ч. 47 м.
Вид битрейта : Постоянный
Битрейт : 192 Кбит/сек
Каналы : 2 канала
Частота : 48,0 КГц
Метод сжатия : С потерями
Размер потока : 148 Мбайт (2%)
Язык : Russian
Аудио #2
Идентификатор : 305 (0x131)
Идентификатор меню : 2204 (0x89C)
Формат : MPEG Audio
Версия формата : Version 1
Профиль формата : Layer 2
Идентификатор кодека : 3
Продолжительность : 1 ч. 47 м.
Вид битрейта : Постоянный
Битрейт : 192 Кбит/сек
Каналы : 2 канала
Частота : 48,0 КГц
Метод сжатия : С потерями



   Похожие торренты   Торрент   Размер 
В этой теме нет новых непрочитанных сообщений. MMA. UFC Fight Night Fox 20. Holm vs. Shevchenko + Main Card [23.07] (2016) HDTV 1080

26 | 4

11.69 ГБ

В этой теме нет новых непрочитанных сообщений. Смешанные единоборства. UFC Fight Night 95: Cyborg vs. Lansberg. Main Card [24.09] (2016) HDTV 1080i

1 | 0

12.03 ГБ

В этой теме нет новых непрочитанных сообщений. Смешанные единоборства. UFC Fight Night 85: Hunt vs. Mir (Preliminary Card / Main Card) [20.03] (2016) HDTV1080i

27 | 11

20.1 ГБ

В этой теме нет новых непрочитанных сообщений. Смешанные единоборства. MMA. UFC 185: Pettis vs. Dos Anjos (Preliminary Card + Main Card) [14.03] (2015) HDTV 720p

40 | 32

9.14 ГБ

В этой теме нет новых непрочитанных сообщений. Смешанные единоборства. UFC 205: Eddie Alvarez vs. Conor McGregor. Main Card [12.11] (2016) HDTV 1080i

34 | 3

17.5 ГБ

В этой теме нет новых непрочитанных сообщений. Смешанные единоборства. MMA. UFC Fight Night 74: Holloway vs. Oliveira (Main Card) [23.08] (2015) WEB-DL, HDTV 720p

71 | 12

5.5 ГБ

В этой теме нет новых непрочитанных сообщений. Смешанные единоборства. UFC Fight Night 46. McGregor vs. Brandao. Main Card (2014) HDTV 1080i

12 | 8

5.13 ГБ




Вы не можете начинать темы
Вы не можете отвечать на сообщения
Вы не можете редактировать свои сообщения
Вы не можете удалять свои сообщения
Вы не можете добавлять вложения

Перейти:  
Для Мосгорсуда, Роскомнадзора и рекламодателей: mosgorsud-torrent[собачка]yandex.ru
 Вход
ppkBB3cker v.2 © 2008-2014 @ PPK
[ Time : 0.021s | 15 Queries | GZIP : Off ]

Торрент трекер RUTOR.IN, Не можете зайти на rutor.org? Какой новый адрес рутор? Какое зеркало рутор? Не работает rutor.org и зеркала? Тогда наш торрент специально для вас. Rutor.in неофициальное зеркало rutor. В случае если у Вас заблокирован rutor или вдруг Вы не можете на него зайти, то Вы без труда сможете скачать бесплатно и без рекламы последние новинки кино, игр, сериалов и прочего у нас, на Rutor.in. Не нужно использовать прокси, чтобы зайти на рутор, достаточно воспользоваться нашим ресурсом. Все новые фильмы, игры, сериалы, книги и музыка за 2013 и 2014 годы через торрент бесплатно. Скачивайте фильмы в хорошем качестве, игры для пк, xbox, playstation без регистрации. У нас вы найдете новые Зарубежные сериалы и Русские сериалы 2013, 2014, 2015 годов. Оставайтесь с нами, качайте любимые фильмы, игры, сериалы, книги и музыку.