img image001 image001 image001 image001 image001 image001 image001 image001 image001 image001 image001 image001 image001 image001 image001

Planets Sun Sun Sun
Статистика раздачи
Автор: Nickolas3434 | Размер: 25.41 ГБ | Добавлен: 12 июл 2016
Раздают: 153    Качают: 5
Скачать торрент
Скачать торрент
Описание торрента

СообщениеДобавлено: 12 июл 2016 

UFC 200
Miesha Tate vs. Amanda Nunes
Undercard + Main Card

Вид спорта: MMA
Участники: Main Card:
Miesha Tate vs. Amanda Nunes TITLE FIGHT
Brock Lesnar vs. Mark Hunt
Daniel Cormier vs. Anderson Silva
Jose Aldo vs. Frankie Edgar TITLE FIGHT
Cain Velasquez vs. Travis Browne
Undercard
Julianna Pena vs. Cat Zingano
Kelvin Gastelum vs. Johny Hendricks
T.J. Dillashaw vs. Raphael Assuncao
Sage Northcutt vs. Enrique Marin
Комментарий: Русский, Интершум
Описание: UFC 200 Las Vegas Nevada st. / Miesha Tate vs. Amanda Nunes / Undercard + Main Card
Автор записи: Mr. Drax

Качество: HDTV
Формат: TS
Видео: 1920x1080i, H.264, 25 fps, ~ 11,8 Mbps
Аудио #1: MP2, 48 kHz, 2 ch, ~192.00 kbps
Аудио #2: MP2, 48 kHz, 2 ch, ~192.00 kbps


























01:47:50

Полное имя : H:Other sportsUFC 200. Miesha Tate vs. Amanda Nunes. Undercard + Main Card. 1080i.ts
Формат : MPEG-TS
Размер файла : 25,4 Гбайт
Продолжительность : 4 ч. 43 м.
Режим общего битрейта : Переменный
Общий поток : 12,9 Мбит/сек
Видео
Идентификатор : 204 (0xCC)
Идентификатор меню : 2204 (0x89C)
Формат : AVC
Формат/Информация : Advanced Video Codec
Профиль формата : High@L4
Параметр CABAC формата : Да
Параметр ReFrames формата : 4 кадра
Параметр GOP формата : M=4, N=28
Идентификатор кодека : 27
Продолжительность : 4 ч. 43 м.
Битрейт : 11,8 Мбит/сек
Ширина : 1920 пикселей
Высота : 1080 пикселей
Соотношение сторон : 16:9
Частота кадров : 25,000 кадров/сек
Стандарт вещания : Component
Цветовое пространство : YUV
Субдискретизация насыщенности : 4:2:0
Битовая глубина : 8 бит
Тип развёртки : Чересстрочная
Порядок развёртки : Верхнее поле первое
Бит/(Пиксели*Кадры) : 0.228
Размер потока : 23,4 Гбайт (92%)
Цветовой диапазон : Limited
Основные цвета : BT.709
Характеристики трансфера : BT.709
Коэффициенты матрицы : BT.709
Аудио #1
Идентификатор : 304 (0x130)
Идентификатор меню : 2204 (0x89C)
Формат : MPEG Audio
Версия формата : Version 1
Профиль формата : Layer 2
Идентификатор кодека : 3
Продолжительность : 4 ч. 43 м.
Вид битрейта : Постоянный
Битрейт : 192 Кбит/сек
Каналы : 2 канала
Частота : 48,0 КГц
Метод сжатия : С потерями
Размер потока : 389 Мбайт (1%)
Язык : Russian
Аудио #2
Идентификатор : 305 (0x131)
Идентификатор меню : 2204 (0x89C)
Формат : MPEG Audio
Версия формата : Version 1
Профиль формата : Layer 2
Идентификатор кодека : 3
Продолжительность : 4 ч. 43 м.
Вид битрейта : Постоянный
Битрейт : 192 Кбит/сек
Каналы : 2 канала
Частота : 48,0 КГц
Метод сжатия : С потерями
Размер потока : 389 Мбайт (1%)
Текст
Идентификатор : 306 (0x132)-888
Идентификатор меню : 2204 (0x89C)
Формат : Teletext Subtitle
Язык : Russian
Язык, дополнительно : For hearing impaired people
Меню
Идентификатор : 104 (0x68)
Идентификатор меню : 2204 (0x89C)
Продолжительность : 4 ч. 43 м.
Список : 204 (0xCC) (AVC) / 304 (0x130) (MPEG Audio, Russian) / 305 (0x131) (MPEG Audio) / 306 (0x132) ()
Язык : / Russian



   Похожие торренты   Торрент   Размер 
В этой теме нет новых непрочитанных сообщений. MMA. UFC 200. Miesha Tate vs. Amanda Nunes. Undercard + Main Card [09.07] (2016) 720p | 25fps (RU|INT)

116 | 5

7.69 ГБ

В этой теме нет новых непрочитанных сообщений. MMA. UFC 201. Lawler vs. Woodley + Main Card [23.07] (2016) HDTV 1080 (RU/ENG)

272 | 63

8.52 ГБ

В этой теме нет новых непрочитанных сообщений. MMA. UFC Fight Night Fox 20. Holm vs. Shevchenko + Main Card [23.07] (2016) HDTV 1080

26 | 4

11.69 ГБ

В этой теме нет новых непрочитанных сообщений. MMA. UFC Fight Night Las Vegas. Dos Anjos vs Alvarez, Main Card [07.07] (2016) HDTV 1080

38 | 4

9.36 ГБ

В этой теме нет новых непрочитанных сообщений. Смешанные единоборства. MMA. UFC 189: Mendes vs. McGregor (Preliminary Card, Main Card) [11.07] (2015) HDTV 1080i

74 | 114

18.41 ГБ

В этой теме нет новых непрочитанных сообщений. Смешанные единоборства. MMA. UFC 185: Pettis vs. Dos Anjos (Preliminary Card + Main Card) [14.03] (2015) HDTV 720p

40 | 32

9.14 ГБ

В этой теме нет новых непрочитанных сообщений. Смешанные единоборства. MMA. UFC on FOX 16: Dillashaw vs. Barao II (Preliminary Card, Main Card) [25.07] (2015) HDTV 1080i

7 | 40

15.26 ГБ




Вы не можете начинать темы
Вы не можете отвечать на сообщения
Вы не можете редактировать свои сообщения
Вы не можете удалять свои сообщения
Вы не можете добавлять вложения

Перейти:  
Для Мосгорсуда, Роскомнадзора и рекламодателей: mosgorsud-torrent[собачка]yandex.ru
 Вход
ppkBB3cker v.2 © 2008-2014 @ PPK
[ Time : 0.031s | 15 Queries | GZIP : Off ]

Торрент трекер RUTOR.IN, Не можете зайти на rutor.org? Какой новый адрес рутор? Какое зеркало рутор? Не работает rutor.org и зеркала? Тогда наш торрент специально для вас. Rutor.in неофициальное зеркало rutor. В случае если у Вас заблокирован rutor или вдруг Вы не можете на него зайти, то Вы без труда сможете скачать бесплатно и без рекламы последние новинки кино, игр, сериалов и прочего у нас, на Rutor.in. Не нужно использовать прокси, чтобы зайти на рутор, достаточно воспользоваться нашим ресурсом. Все новые фильмы, игры, сериалы, книги и музыка за 2013 и 2014 годы через торрент бесплатно. Скачивайте фильмы в хорошем качестве, игры для пк, xbox, playstation без регистрации. У нас вы найдете новые Зарубежные сериалы и Русские сериалы 2013, 2014, 2015 годов. Оставайтесь с нами, качайте любимые фильмы, игры, сериалы, книги и музыку.