img image001 image001 image001 image001 image001 image001 image001 image001 image001 image001 image001 image001 image001 image001 image001

Planets Sun Sun Sun
Статистика раздачи
Автор: Nickolas3434 | Размер: 4.75 ГБ | Добавлен: 12 июл 2016
Раздают: 95    Качают: 2
Скачать торрент
Скачать торрент
Описание торрента

СообщениеДобавлено: 12 июл 2016 

Чемпионат Европы 2016
Финал
Португалия - Франция


Вид спорта: Футбол
Участники: Португалия - Франция
Комментарий: Русский
Описание: 10 июля 2016, воскресенье. 22:00 МСК
Финал
Стадион: Стад де Франс (Сен-Дени, Франция) , 75 868 зрителей (95 % при вместимости 80 000)
Главный судья: Марк Клаттенбург (Ньюкасл-апон-Тайн,Тайн-энд-Уир, Англия)
Ассистент: Саймон Бэк (Бедфордшир, Англия)
Ассистент: Джейк Коллин (Ливерпуль, Англия)
Резервный: Виктор Кошшои (Татабанья, Венгрия)
Автор записи: Mr. Drax

Качество: HDTVRip
Формат видео: MKV
Видео: H.264, 1280x720, 25 fps, 3000 Kbps
Аудио: AC3, 48.0 KHz, 2 ch stereo, 192 kbps

03:32:02


Полное имя : H:FootballEURO 2016Euro 2016. The Finals.Portugal - France.10.07.2016.HDTVRip720p.mkv
Формат : Matroska
Версия формата : Version 4 / Version 2
Размер файла : 4,75 Гбайт
Продолжительность : 3 ч. 32 м.
Общий поток : 3207 Кбит/сек
Программа кодирования : Lavf56.0.100
Библиотека кодирования : Lavf56.0.100
Видео
Идентификатор : 1
Формат : AVC
Формат/Информация : Advanced Video Codec
Профиль формата : High@L3.1
Параметр CABAC формата : Да
Параметр ReFrames формата : 4 кадра
Идентификатор кодека : V_MPEG4/ISO/AVC
Продолжительность : 3 ч. 32 м.
Битрейт : 3000 Кбит/сек
Ширина : 1280 пикселей
Высота : 720 пикселей
Соотношение сторон : 16:9
Режим частоты кадров : Постоянный
Частота кадров : 25,000 кадров/сек
Цветовое пространство : YUV
Субдискретизация насыщенности : 4:2:0
Битовая глубина : 8 бит
Тип развёртки : Прогрессивная
Бит/(Пиксели*Кадры) : 0.130
Размер потока : 4,37 Гбайт (92%)
Библиотека кодирования : x264 core 142 r2453 ea0ca51
Настройки программы : cabac=1 / ref=3 / deblock=1:0:0 / analyse=0x3:0x113 / me=hex / subme=7 / psy=1 / psy_rd=1.00:0.00 / mixed_ref=1 / me_range=16 / chroma_me=1 / trellis=1 / 8x8dct=1 / cqm=0 / deadzone=21,11 / fast_pskip=1 / chroma_qp_offset=-2 / threads=12 / lookahead_threads=2 / sliced_threads=0 / nr=0 / decimate=1 / interlaced=0 / bluray_compat=0 / constrained_intra=0 / bframes=3 / b_pyramid=2 / b_adapt=1 / b_bias=0 / direct=1 / weightb=1 / open_gop=0 / weightp=2 / keyint=250 / keyint_min=25 / scenecut=40 / intra_refresh=0 / rc_lookahead=40 / rc=abr / mbtree=1 / bitrate=3000 / ratetol=1.0 / qcomp=0.60 / qpmin=0 / qpmax=69 / qpstep=4 / ip_ratio=1.40 / aq=1:1.00
Default : Да
Forced : Нет
Аудио
Идентификатор : 2
Формат : AC-3
Формат/Информация : Audio Coding 3
Расширение режима : CM (complete main)
Параметр Endianness формата : Big
Идентификатор кодека : A_AC3
Продолжительность : 3 ч. 32 м.
Вид битрейта : Постоянный
Битрейт : 192 Кбит/сек
Каналы : 2 канала
Расположение каналов : Front: L R
Частота : 48,0 КГц
Битовая глубина : 32 бит
Метод сжатия : С потерями
Задержка видео : -981 мс.
Размер потока : 291 Мбайт (6%)
Библиотека кодирования : Lavc56.0.100 ac3
Язык : Russian
Default : Да
Forced : Нет



   Похожие торренты   Торрент   Размер 
В этой теме нет новых непрочитанных сообщений. Футбол. Чемпионат Европы 2016. Финал. Португалия - Франция + Превью + Награждение [Матч Футбол 1 HD] [10.07] (2016) HDTVRip 720p | 50 fps

151 | 12

6.32 ГБ

В этой теме нет новых непрочитанных сообщений. Футбол. Чемпионат Европы 2016. Финал. Португалия - Франция + Превью + Награждение [Матч Футбол 1 HD] [10.07] (2016) HDTVRip

148 | 6

3.14 ГБ

В этой теме нет новых непрочитанных сообщений. Футбол. Чемпионат Европы 2016. Финал. Португалия - Франция [Полная Live-трансляция] [Feed] [10.07] (2016) HDTVRip 720p | 50 fps

5 | 3

18.28 ГБ

В этой теме нет новых непрочитанных сообщений. Футбол. Чемпионат Европы 2016. 1/2 финала. Германия - Франция [Футбол 1 HD] [07.07] (2016) HDTVRip 720p | 25fps

35 | 3

2.46 ГБ

В этой теме нет новых непрочитанных сообщений. Футбол. Чемпионат Европы 2016. Финал. Португалия - Франция + Превью + Награждение [Матч Футбол 1 HD] [10.07] (2016) IPTVRip-AVC

244 | 12

3.34 ГБ

В этой теме нет новых непрочитанных сообщений. Футбол. Чемпионат Европы 2016. Финал. Португалия - Франция + Превью + Награждение [Матч Футбол 1 HD] [10.07] (2016) IPTV 1080p

74 | 20

6.89 ГБ

В этой теме нет новых непрочитанных сообщений. Футбол. Чемпионат Европы 2016. Финал. Португалия - Франция + Превью + Награждение [Матч Футбол 1 HD] [10.07] (2016) HDTV 1080i

64 | 4

17.68 ГБ




Вы не можете начинать темы
Вы не можете отвечать на сообщения
Вы не можете редактировать свои сообщения
Вы не можете удалять свои сообщения
Вы не можете добавлять вложения

Перейти:  
Для Мосгорсуда, Роскомнадзора и рекламодателей: mosgorsud-torrent[собачка]yandex.ru
 Вход
ppkBB3cker v.2 © 2008-2014 @ PPK
[ Time : 0.029s | 15 Queries | GZIP : Off ]

Торрент трекер RUTOR.IN, Не можете зайти на rutor.org? Какой новый адрес рутор? Какое зеркало рутор? Не работает rutor.org и зеркала? Тогда наш торрент специально для вас. Rutor.in неофициальное зеркало rutor. В случае если у Вас заблокирован rutor или вдруг Вы не можете на него зайти, то Вы без труда сможете скачать бесплатно и без рекламы последние новинки кино, игр, сериалов и прочего у нас, на Rutor.in. Не нужно использовать прокси, чтобы зайти на рутор, достаточно воспользоваться нашим ресурсом. Все новые фильмы, игры, сериалы, книги и музыка за 2013 и 2014 годы через торрент бесплатно. Скачивайте фильмы в хорошем качестве, игры для пк, xbox, playstation без регистрации. У нас вы найдете новые Зарубежные сериалы и Русские сериалы 2013, 2014, 2015 годов. Оставайтесь с нами, качайте любимые фильмы, игры, сериалы, книги и музыку.