img image001 image001 image001 image001 image001 image001 image001 image001 image001 image001 image001 image001 image001 image001 image001

Planets Sun Sun Sun
Статистика раздачи
Автор: Nickolas3434 | Размер: 1.71 ГБ | Добавлен: 31 июл 2016
Раздают: 72    Качают: 3
Скачать торрент
Скачать торрент
Описание торрента

СообщениеДобавлено: 31 июл 2016 

UFC Fight Night Fox 20
Holm vs. Shevchenko
Main Card

Вид спорта: MMA
Участники: Main Card:
12. Women's Bantamweight Holly Holm vs Valentina Shevchenko
11. Lightweight Edson Barboza vs Gilbert Melendez
10. Heavyweight Francis Ngannou vs Bojan Mihajlović
9. Women's Strawweight Felice Herrig vs Kailin Curran
Комментарий: Русский, Интершум
Описание: UFC Fight Night Fox 20. Holm vs. Shevchenko + Main Card
Автор записи: Mr. Drax

Качество: HDTVRip 720p
Формат: MKV
Видео: 1280x720 (16:9), 50 fps, HEVC, ~1500 kbps avg
Аудио #1: AC3, 48 kHz, 2 ch, ~192.00 kbps
Аудио #2: AC3, 48 kHz, 2 ch, ~192.00 kbps


























02:09:29

Полное имя : H:Other sportsUFC Fight Night Fox 20. Holm vs. Shevchenko + Main Card.HDTVRip.720p.50fps.H.265.mkv
Формат : Matroska
Версия формата : Version 4 / Version 2
Размер файла : 1,71 Гбайт
Продолжительность : 2 ч. 9 м.
Общий поток : 1891 Кбит/сек
Программа кодирования : Lavf57.37.101
Библиотека кодирования : Lavf57.37.101
Видео
Идентификатор : 1
Формат : HEVC
Формат/Информация : High Efficiency Video Coding
Профиль формата : Main@L4@Main
Идентификатор кодека : V_MPEGH/ISO/HEVC
Битрейт : 1469 Кбит/сек
Ширина : 1280 пикселей
Высота : 720 пикселей
Соотношение сторон : 16:9
Режим частоты кадров : Переменный
Частота кадров в оригинале : 50,000 кадров/сек
Цветовое пространство : YUV
Субдискретизация насыщенности : 4:2:0
Битовая глубина : 8 бит
Библиотека кодирования : x265 1.9:[Windows][GCC 5.2.0][64 bit] 8bit
Настройки программы : wpp / ctu=64 / min-cu-size=8 / max-tu-size=32 / tu-intra-depth=1 / tu-inter-depth=1 / me=1 / subme=1 / merange=57 / no-rect / no-amp / max-merge=2 / temporal-mvp / early-skip / rdpenalty=0 / no-tskip / no-tskip-fast / strong-intra-smoothing / no-lossless / no-cu-lossless / no-constrained-intra / fast-intra / open-gop / no-temporal-layers / interlace=0 / keyint=250 / min-keyint=25 / scenecut=40 / rc-lookahead=15 / lookahead-slices=4 / bframes=4 / bframe-bias=0 / b-adapt=0 / ref=2 / limit-refs=3 / no-limit-modes / weightp / no-weightb / aq-mode=1 / qg-size=32 / aq-strength=1.00 / cbqpoffs=0 / crqpoffs=0 / rd=2 / psy-rd=2.00 / rdoq-level=0 / psy-rdoq=0.00 / signhide / deblock / sao / no-sao-non-deblock / b-pyramid / cutree / no-intra-refresh / rc=abr / bitrate=1500 / qcomp=0.60 / qpmin=0 / qpmax=51 / qpstep=4 / ipratio=1.40 / pbratio=1.30
Default : Да
Forced : Нет
DURATION : 02:09:29.845000000
Аудио #1
Идентификатор : 2
Формат : AC-3
Формат/Информация : Audio Coding 3
Расширение режима : CM (complete main)
Параметр Endianness формата : Big
Идентификатор кодека : A_AC3
Продолжительность : 2 ч. 9 м.
Вид битрейта : Постоянный
Битрейт : 192 Кбит/сек
Каналы : 2 канала
Расположение каналов : Front: L R
Частота : 48,0 КГц
Битовая глубина : 32 бит
Метод сжатия : С потерями
Размер потока : 178 Мбайт (10%)
Библиотека кодирования : Lavc57.43.100 ac3
Язык : Russian
Default : Да
Forced : Нет
DURATION : 02:09:29.864000000
Аудио #2
Идентификатор : 3
Формат : AC-3
Формат/Информация : Audio Coding 3
Расширение режима : CM (complete main)
Параметр Endianness формата : Big
Идентификатор кодека : A_AC3
Продолжительность : 2 ч. 9 м.
Вид битрейта : Постоянный
Битрейт : 192 Кбит/сек
Каналы : 2 канала
Расположение каналов : Front: L R
Частота : 48,0 КГц
Битовая глубина : 32 бит
Метод сжатия : С потерями
Размер потока : 178 Мбайт (10%)
Библиотека кодирования : Lavc57.43.100 ac3
Default : Да
Forced : Нет
DURATION : 02:09:29.864000000



   Похожие торренты   Торрент   Размер 
В этой теме нет новых непрочитанных сообщений. MMA. UFC Fight Night Fox 20. Holm vs. Shevchenko + Main Card [23.07] (2016) HDTV 1080

26 | 4

11.69 ГБ

В этой теме нет новых непрочитанных сообщений. Смешанные единоборства. MMA. UFC Fight Night 62: Maia vs. LaFlare (Preliminary Card + Main Card) [21.03] (2015) HDTVRip 720p

10 | 32

7.71 ГБ

В этой теме нет новых непрочитанных сообщений. Смешанные единоборства. MMA. UFC Fight Night 63: Mendes vs. Lamas (Preliminary Card + Main Card) [04.04] (2015) HDTVRip 720p

98 | 23

9.04 ГБ

В этой теме нет новых непрочитанных сообщений. Смешанные единоборства. UFC Fight Night 95: Cyborg vs. Lansberg. Main Card [24.09] (2016) HDTVRip 720p | 50 fps

60 | 11

5.07 ГБ

В этой теме нет новых непрочитанных сообщений. Смешанные единоборства. UFC Fight Night 85: Hunt vs. Mir (Preliminary Card / Main Card) [20.03] (2016) HDTV1080i

27 | 11

20.1 ГБ

В этой теме нет новых непрочитанных сообщений. Смешанные единоборства. MMA. UFC Fight Night 63: Mendes vs. Lamas (Preliminary Card + Main Card) [04.04] (2015) HDTVRip

120 | 47

2.73 ГБ

В этой теме нет новых непрочитанных сообщений. Смешанные единоборства. MMA. UFC Fight Night 62: Maia vs. LaFlare (Preliminary Card + Main Card) [21.03] (2015) HDTVRip

74 | 13

2.64 ГБ




Вы не можете начинать темы
Вы не можете отвечать на сообщения
Вы не можете редактировать свои сообщения
Вы не можете удалять свои сообщения
Вы не можете добавлять вложения

Перейти:  
Для Мосгорсуда, Роскомнадзора и рекламодателей: mosgorsud-torrent[собачка]yandex.ru
 Вход
ppkBB3cker v.2 © 2008-2014 @ PPK
[ Time : 0.078s | 16 Queries | GZIP : Off ]

Торрент трекер RUTOR.IN, Не можете зайти на rutor.org? Какой новый адрес рутор? Какое зеркало рутор? Не работает rutor.org и зеркала? Тогда наш торрент специально для вас. Rutor.in неофициальное зеркало rutor. В случае если у Вас заблокирован rutor или вдруг Вы не можете на него зайти, то Вы без труда сможете скачать бесплатно и без рекламы последние новинки кино, игр, сериалов и прочего у нас, на Rutor.in. Не нужно использовать прокси, чтобы зайти на рутор, достаточно воспользоваться нашим ресурсом. Все новые фильмы, игры, сериалы, книги и музыка за 2013 и 2014 годы через торрент бесплатно. Скачивайте фильмы в хорошем качестве, игры для пк, xbox, playstation без регистрации. У нас вы найдете новые Зарубежные сериалы и Русские сериалы 2013, 2014, 2015 годов. Оставайтесь с нами, качайте любимые фильмы, игры, сериалы, книги и музыку.
cron