img image001 image001 image001 image001 image001 image001 image001 image001 image001 image001 image001 image001 image001 image001 image001

Planets Sun Sun Sun
Статистика раздачи
Автор: PriZraK | Размер: 13.35 ГБ | Добавлен: 03 сен 2016
Раздают: 1    Качают: 2
Скачать торрент
Скачать торрент
Описание торрента

СообщениеДобавлено: 03 сен 2016 

Формула 1 / Сезон 2016 / Этап 14 / Гран-при Италии / 1, 2 практики
Вид спорта: Формула-1
Дата/Год выпуска: 02.08.2016
Язык комментариев: Русский (Алексей Попов, Владимир Башмаков)
Канал: Матч Арена HD

Описание:
02 августа 2016 года.
Этап 14. Гран-при Италии.
Арена: Автодром Монца (Монца, Италия)
Автор рипа/записи: _Steep_
Качество: HDTV
Формат видео: TS
Видео: H264/AVC, 1920х1080, 25 fps, ~9000 kbps
Аудио: Русский, MP2, 2 ch, 48000 Hz, 192 Kbps
(02.08.2016) - 1-я свободная практика - [01:33:21]
(02.08.2016) - 2-я свободная практика - [01:39:05]
(03.08.2016) - 3-я свободная практика - [00:00:00]
(03.08.2016) - Квалификация - [00:00:00]
(04.08.2016) - Гонка - [00:00:00]


Счёт/Итог
Общее
Идентификатор : 1 (0x1)
Полное имя : F:ТВФормула 1Гран-при Италии.1080i1.Свободная практика 1_(Матч Арена HD)_HDTV_1080i_steep.ts
Формат : MPEG-TS
Размер файла : 6,50 Гбайт
Продолжительность : 1 ч. 33 м.
Режим общего битрейта : Переменный
Общий поток : 9968 Кбит/сек
Видео
Идентификатор : 324 (0x144)
Идентификатор меню : 12104 (0x2F48)
Формат : AVC
Формат/Информация : Advanced Video Codec
Профиль формата : High@L4
Параметр CABAC формата : Да
Параметр ReFrames формата : 4 кадра
Идентификатор кодека : 27
Продолжительность : 1 ч. 33 м.
Битрейт : 9282 Кбит/сек
Ширина : 1920 пикселей
Высота : 1080 пикселей
Соотношение сторон : 16:9
Частота кадров : 25,000 кадров/сек
Стандарт вещания : Component
Цветовое пространство : YUV
Субдискретизация насыщенности : 4:2:0
Битовая глубина : 8 бит
Тип развёртки : Чересстрочная
Метод сохранения типа развёртки : Раздельные поля
Порядок развёртки : Верхнее поле первое
Бит/(Пиксели*Кадры) : 0.179
Размер потока : 6,05 Гбайт (93%)
Цветовой диапазон : Limited
Основные цвета : BT.709
Характеристики трансфера : BT.709
Коэффициенты матрицы : BT.709
Аудио
Идентификатор : 404 (0x194)
Идентификатор меню : 12104 (0x2F48)
Формат : MPEG Audio
Версия формата : Version 1
Профиль формата : Layer 2
Идентификатор кодека : 3
Продолжительность : 1 ч. 33 м.
Вид битрейта : Постоянный
Битрейт : 192 Кбит/сек
Каналы : 2 канала
Частота : 48,0 КГц
Метод сжатия : С потерями
Задержка видео : -40 мс.
Размер потока : 128 Мбайт (2%)
Язык : Russian



   Похожие торренты   Торрент   Размер 
В этой теме нет новых непрочитанных сообщений. Формула 1. 2016. 14/21. Гран-при Италии. 1, 2 практики (Матч Арена HD) [02.09] (2016) HDTV 1080i

3 | 1

24.06 ГБ

В этой теме нет новых непрочитанных сообщений. Формула 1. 2016. 14/21. Гран-при Италии. 1, 2 практики (Матч Арена HD) [02.09] (2016) HDTVRip | 50 fps

4 | 10

1.73 ГБ

В этой теме нет новых непрочитанных сообщений. Формула 1. 2016. 14/21. Гран-при Италии. Гонка (Матч Арена HD) [04.09] (2016) HDTV 1080i

0 | 0

7.85 ГБ

В этой теме нет новых непрочитанных сообщений. Формула 1. 2016. 14/21. Гран-при Италии. Квалификация (Матч Арена HD) [03.09] (2016) HDTV 1080i

7 | 1

5.46 ГБ

В этой теме нет новых непрочитанных сообщений. Формула 1. 2016. 18/21. Гран-при США. Гонка (Матч Арена HD) [22.10] (2016) HDTV 1080i

25 | 5

11.78 ГБ

В этой теме нет новых непрочитанных сообщений. Формула 1. 2016. 18/21. Гран-при США. Квалификация (Матч Арена HD) [22.10] (2016) HDTV 1080i

1 | 3

6.15 ГБ

В этой теме нет новых непрочитанных сообщений. Формула 1. 2016. 17/21. Гран-при Японии. 3 практика (Матч Арена HD) [08.10] (2016) HDTV 1080i

0 | 3

4.85 ГБ




Вы не можете начинать темы
Вы не можете отвечать на сообщения
Вы не можете редактировать свои сообщения
Вы не можете удалять свои сообщения
Вы не можете добавлять вложения

Перейти:  
Для Мосгорсуда, Роскомнадзора и рекламодателей: mosgorsud-torrent[собачка]yandex.ru
 Вход
ppkBB3cker v.2 © 2008-2014 @ PPK
[ Time : 0.058s | 17 Queries | GZIP : On ]

Торрент трекер RUTOR.IN, Не можете зайти на rutor.org? Какой новый адрес рутор? Какое зеркало рутор? Не работает rutor.org и зеркала? Тогда наш торрент специально для вас. Rutor.in неофициальное зеркало rutor. В случае если у Вас заблокирован rutor или вдруг Вы не можете на него зайти, то Вы без труда сможете скачать бесплатно и без рекламы последние новинки кино, игр, сериалов и прочего у нас, на Rutor.in. Не нужно использовать прокси, чтобы зайти на рутор, достаточно воспользоваться нашим ресурсом. Все новые фильмы, игры, сериалы, книги и музыка за 2013 и 2014 годы через торрент бесплатно. Скачивайте фильмы в хорошем качестве, игры для пк, xbox, playstation без регистрации. У нас вы найдете новые Зарубежные сериалы и Русские сериалы 2013, 2014, 2015 годов. Оставайтесь с нами, качайте любимые фильмы, игры, сериалы, книги и музыку.