img image001 image001 image001 image001 image001 image001 image001 image001 image001 image001 image001 image001 image001 image001 image001

Planets Sun Sun Sun
Статистика раздачи
Автор: PriZraK | Размер: 1.73 ГБ | Добавлен: 03 сен 2016
Раздают: 4    Качают: 10
Скачать торрент
Скачать торрент
Описание торрента

СообщениеДобавлено: 03 сен 2016 

Формула 1 / Сезон 2016 / Этап 14 / Гран-при Италии / 1, 2 практики.
Вид спорта: Формула-1
Дата/Год выпуска: 02.08.2016
Язык комментариев: Русский (Алексей Попов, Владимир Башмаков)
Канал: Матч Арена HD

Описание:
02 августа 2016 года.
Этап 14. Гран-при Италии.
Арена: Автодром Монца (Монца, Италия)
Автор рипа/записи: _Steep_
Качество: HDTVRip
Формат видео: MKV
Видео: H264/AVC, 720х400, ~1161 kbps, 50 fps
Аудио: Русский, AAC, 2 ch, 48000 Hz, 128 Kbps
(02.08.2016) - 1-я свободная практика - [01:33:21]
(02.08.2016) - 2-я свободная практика - [01:39:05]
(03.08.2016) - 3-я свободная практика - [00:00:00]
(03.08.2016) - Квалификация - [00:00:00]
(04.08.2016) - Гонка - [00:00:00]

Счёт/Итог

Общее
Уникальный идентификатор : 204852827693119208367138281490294147988 (0x9A1D3831750E2D8E86FD1BB4DD5A8B94)
Полное имя : F:ТВФормула 1Гран-при Италии.400p1.Свободная практика 1_(Матч Арена HD)_HDTVRip_steep.mkv
Формат : Matroska
Версия формата : Version 4 / Version 2
Размер файла : 865 Мбайт
Продолжительность : 1 ч. 33 м.
Общий поток : 1296 Кбит/сек
Дата кодирования : UTC 2016-09-02 11:55:22
Программа кодирования : mkvmerge v9.4.0 ('Knurl') 64bit
Библиотека кодирования : libebml v1.3.4 + libmatroska v1.4.5
Видео
Идентификатор : 1
Формат : AVC
Формат/Информация : Advanced Video Codec
Профиль формата : High@L3.1
Параметр CABAC формата : Да
Параметр ReFrames формата : 4 кадра
Идентификатор кодека : V_MPEG4/ISO/AVC
Продолжительность : 1 ч. 33 м.
Битрейт : 1164 Кбит/сек
Ширина : 720 пикселей
Высота : 400 пикселей
Соотношение сторон : 16:9
Режим частоты кадров : Постоянный
Частота кадров : 50,000 кадров/сек
Цветовое пространство : YUV
Субдискретизация насыщенности : 4:2:0
Битовая глубина : 8 бит
Тип развёртки : Прогрессивная
Бит/(Пиксели*Кадры) : 0.081
Размер потока : 777 Мбайт (90%)
Библиотека кодирования : x264 core 148 r2705M 3f5ed56
Настройки программы : cabac=1 / ref=2 / deblock=1:1:1 / analyse=0x3:0x133 / me=umh / subme=9 / psy=1 / psy_rd=1.00:0.20 / mixed_ref=1 / me_range=24 / chroma_me=1 / trellis=1 / 8x8dct=1 / cqm=0 / deadzone=21,11 / fast_pskip=1 / chroma_qp_offset=-3 / threads=4 / lookahead_threads=1 / sliced_threads=0 / nr=0 / decimate=1 / interlaced=0 / bluray_compat=0 / constrained_intra=0 / bframes=6 / b_pyramid=2 / b_adapt=2 / b_bias=0 / direct=1 / weightb=1 / open_gop=0 / weightp=2 / keyint=250 / keyint_min=25 / scenecut=40 / intra_refresh=0 / rc_lookahead=40 / rc=crf / mbtree=1 / crf=24.0 / qcomp=0.60 / qpmin=0 / qpmax=69 / qpstep=4 / ip_ratio=1.40 / aq=1:1.00
Default : Да
Forced : Нет
Цветовой диапазон : Limited
Основные цвета : BT.709
Характеристики трансфера : BT.709
Коэффициенты матрицы : BT.709
Аудио
Идентификатор : 2
Формат : AAC
Формат/Информация : Advanced Audio Codec
Профиль формата : LC
Идентификатор кодека : A_AAC
Продолжительность : 1 ч. 33 м.
Битрейт : 128 Кбит/сек
Каналы : 2 канала
Расположение каналов : Front: L R
Частота : 48,0 КГц
Частота кадров : 46,875 кадров/сек (1024 spf)
Метод сжатия : С потерями
Размер потока : 85,5 Мбайт (10%)
Язык : Russian
Default : Да
Forced : Нет



   Похожие торренты   Торрент   Размер 
В этой теме нет новых непрочитанных сообщений. Формула 1. 2016. 14/21. Гран-при Италии. 1, 2 практики (Матч Арена HD) [02.09] (2016) HDTV 1080i

3 | 1

24.06 ГБ

В этой теме нет новых непрочитанных сообщений. Формула 1. 2016. 14/21. Гран-при Италии. 1, 2 практики (Матч Арена HD) [02.09] (2016) HDTV 1080i

1 | 2

13.35 ГБ

В этой теме нет новых непрочитанных сообщений. Формула 1. 2016. 14/21. Гран-при Италии. Гонка (Матч Арена HD) [04.09] (2016) HDTVRip 720p | 50fps

0 | 0

3.47 ГБ

В этой теме нет новых непрочитанных сообщений. Формула 1. 2016. 14/21. Гран-при Италии. Квалификация (Матч Арена HD) [03.09] (2016) HDTVRip 720p | 50fps

97 | 4

2.17 ГБ

В этой теме нет новых непрочитанных сообщений. Формула 1. 2016. 14/21. Гран-при Италии. Гонка (Матч Арена HD) [04.09] (2016) SATRip

0 | 0

1.39 ГБ

В этой теме нет новых непрочитанных сообщений. Формула 1. 2016. 14/21. Гран-при Италии. Квалификация (Матч Арена HD) [03.09] (2016) HDTV 1080i

7 | 1

5.46 ГБ

В этой теме нет новых непрочитанных сообщений. Формула 1. 2016. 14/21. Гран-при Италии. Гонка (Матч Арена HD) [04.09] (2016) HDTV 1080i

0 | 0

7.85 ГБ




Вы не можете начинать темы
Вы не можете отвечать на сообщения
Вы не можете редактировать свои сообщения
Вы не можете удалять свои сообщения
Вы не можете добавлять вложения

Перейти:  
Для Мосгорсуда, Роскомнадзора и рекламодателей: mosgorsud-torrent[собачка]yandex.ru
 Вход
ppkBB3cker v.2 © 2008-2014 @ PPK
[ Time : 0.117s | 16 Queries | GZIP : Off ]

Торрент трекер RUTOR.IN, Не можете зайти на rutor.org? Какой новый адрес рутор? Какое зеркало рутор? Не работает rutor.org и зеркала? Тогда наш торрент специально для вас. Rutor.in неофициальное зеркало rutor. В случае если у Вас заблокирован rutor или вдруг Вы не можете на него зайти, то Вы без труда сможете скачать бесплатно и без рекламы последние новинки кино, игр, сериалов и прочего у нас, на Rutor.in. Не нужно использовать прокси, чтобы зайти на рутор, достаточно воспользоваться нашим ресурсом. Все новые фильмы, игры, сериалы, книги и музыка за 2013 и 2014 годы через торрент бесплатно. Скачивайте фильмы в хорошем качестве, игры для пк, xbox, playstation без регистрации. У нас вы найдете новые Зарубежные сериалы и Русские сериалы 2013, 2014, 2015 годов. Оставайтесь с нами, качайте любимые фильмы, игры, сериалы, книги и музыку.