img image001 image001 image001 image001 image001 image001 image001 image001 image001 image001 image001 image001 image001 image001 image001

Planets Sun Sun Sun
Статистика раздачи
Автор: Nickolas3434 | Размер: 5.6 ГБ | Добавлен: 17 окт 2016
Раздают: 0    Качают: 0
Скачать торрент
Скачать торрент
Описание торрента

СообщениеДобавлено: 17 окт 2016 


Информация о фильме
Название: Рой Джонс несравненный
Год выхода: 2006
Жанр: спорт
В ролях: Рой Джонс и другие.
О фильме:
На первый взгляд, вы не заметите в Рое Джонсе Мл. потрясающего сочетания таланта, личности и харизмы. Тихая, даже задумчивая личность, - мировая знаменитость и суперзвезда бокса… Профессиональный игрок в баскетбол, музыкальный продюссер и исполнитель, актер и просто приятный парень. Известный как лучший боец 'Pound for pound' в мире, - бесспорный Чемпион Мира в категории Light Heavyweight. К тому же, Джонс недавно получил награду за достижения в жизни от WBC.
Рой Джонс несравненный , с телеканала НТВ авторской программы Владимира Гендлина Мировой бокс. Увлекательный рассказ о боксерской карьере Роя Джонса.
Доп. информация: История о Рое Джонсе, Рой Джонс против Клинтона Вудса, Рой Джонс против Джулио Гонзалеса (бой полностью в отличии от имеющегося в сети)
Второй фильм лучшие нокауты.
Страна: США
Продолжительность: 01:51:00 + 01:00:01
Перевод: не требуется
Файл
Кодек: x264
Качество: DVDRip-AVC
Видео: MPEG-4 AVC, 698x572@744x572, 700x480@700x540, ~3800 Кбит/с
Звук: AC3, 2 ch, 192 Кбит/с

Общее
Уникальный идентификатор : 228811868398204088705370620696607043382 (0xAC23901A1425369EB99E038FD50FAF36)
Полное имя : R:МОИ РИПЫРой Джонс-Нокауты, карьераРой Джонс-Лучшие нокауты.mkv
Формат : Matroska
Версия формата : Version 2
Размер файла : 1,76 Гбайт
Продолжительность : 1 ч. 0 м.
Общий поток : 4200 Кбит/сек
Дата кодирования : UTC 2016-07-29 10:41:29
Программа кодирования : mkvmerge v5.8.0 ('No Sleep / Pillow') built on Sep 2 2012 15:37:04
Библиотека кодирования : libebml v1.2.3 + libmatroska v1.3.0
Видео
Идентификатор : 1
Формат : AVC
Формат/Информация : Advanced Video Codec
Профиль формата : High@L4.1
Параметр CABAC формата : Да
Параметр ReFrames формата : 16 кадров
Идентификатор кодека : V_MPEG4/ISO/AVC
Продолжительность : 1 ч. 0 м.
Битрейт : 4000 Кбит/сек
Ширина : 700 пикселей
Высота : 480 пикселей
Соотношение сторон : 1,296
Режим частоты кадров : Постоянный
Частота кадров : 29,970 кадров/сек
Цветовое пространство : YUV
Субдискретизация насыщенности : 4:2:0
Битовая глубина : 8 бит
Тип развёртки : Прогрессивная
Бит/(Пиксели*Кадры) : 0.397
Размер потока : 1,65 Гбайт (93%)
Библиотека кодирования : x264 core 148 r2638 7599210
Настройки программы : cabac=1 / ref=16 / deblock=1:-2:-2 / analyse=0x3:0x133 / me=umh / subme=10 / psy=1 / psy_rd=1.05:0.15 / mixed_ref=1 / me_range=32 / chroma_me=1 / trellis=2 / 8x8dct=1 / cqm=0 / deadzone=21,11 / fast_pskip=0 / chroma_qp_offset=-3 / threads=12 / lookahead_threads=3 / sliced_threads=0 / nr=0 / decimate=0 / interlaced=0 / bluray_compat=0 / constrained_intra=0 / bframes=16 / b_pyramid=2 / b_adapt=2 / b_bias=0 / direct=3 / weightb=1 / open_gop=0 / weightp=2 / keyint=240 / keyint_min=24 / scenecut=40 / intra_refresh=0 / rc=2pass / mbtree=0 / bitrate=4000 / ratetol=1.0 / qcomp=0.63 / qpmin=0 / qpmax=39 / qpstep=4 / cplxblur=20.0 / qblur=0.5 / ip_ratio=1.10 / pb_ratio=1.30 / aq=1:1.00
Язык : English
Default : Да
Forced : Нет
Цветовой диапазон : Limited
Основные цвета : BT.601 NTSC
Характеристики трансфера : BT.601
Коэффициенты матрицы : BT.601
Аудио
Идентификатор : 2
Формат : AC-3
Формат/Информация : Audio Coding 3
Расширение режима : CM (complete main)
Параметр Endianness формата : Big
Идентификатор кодека : A_AC3
Продолжительность : 1 ч. 0 м.
Вид битрейта : Постоянный
Битрейт : 192 Кбит/сек
Каналы : 2 канала
Расположение каналов : Front: L R
Частота : 48,0 КГц
Метод сжатия : С потерями
Размер потока : 82,4 Мбайт (5%)
Язык : Russian
Default : Да
Forced : Нет
Меню
00:00:00.000 : ru:Chapter 1
00:00:21.667 : ru:Chapter 2
00:03:53.800 : ru:Chapter 3
00:06:27.601 : ru:Chapter 4
00:10:37.901 : ru:Chapter 5
00:13:04.201 : ru:Chapter 6
00:18:18.868 : ru:Chapter 7
00:20:16.302 : ru:Chapter 8
00:23:57.602 : ru:Chapter 9
00:29:18.203 : ru:Chapter 10
00:34:42.937 : ru:Chapter 11
00:38:20.171 : ru:Chapter 12
00:43:56.905 : ru:Chapter 13
00:49:37.506 : ru:Chapter 14
00:56:01.606 : ru:Chapter 15

Релиз от: Korsar
Автор релиза:



   Похожие торренты   Торрент   Размер 
В этой теме нет новых непрочитанных сообщений. Мистер Джонс / Mr. Jones (1993) DVDRip | P

115 | 10

1.36 ГБ

В этой теме нет новых непрочитанных сообщений. Я и миссис Джонс / Me and Mrs Jones [S01] (2012) DVDRip | P

2 | 1

1.59 ГБ

В этой теме нет новых непрочитанных сообщений. Мистер Джонс / Mr. Jones (2013) DVDRip | L1

183 | 16

945.09 МБ

В этой теме нет новых непрочитанных сообщений. Том Джонс / Ловелас / Tom Jones (1963) DVDRip от Кинорадиомагия | P

22 | 14

2.05 ГБ

В этой теме нет новых непрочитанных сообщений. Кейси Джонс / Casey Jones (2011) DVDRip

17 | 3

499.94 МБ

В этой теме нет новых непрочитанных сообщений. Осмосис Джонс / Osmosis Jones (2001) DVDRip

101 | 16

1.37 ГБ

В этой теме нет новых непрочитанных сообщений. И пришел Джонс / Along Came Jones (1945) DVDRip от egoleshik | P2

52 | 14

1.39 ГБ




Вы не можете начинать темы
Вы не можете отвечать на сообщения
Вы не можете редактировать свои сообщения
Вы не можете удалять свои сообщения
Вы не можете добавлять вложения

Перейти:  
Для Мосгорсуда, Роскомнадзора и рекламодателей: mosgorsud-torrent[собачка]yandex.ru
 Вход
ppkBB3cker v.2 © 2008-2014 @ PPK
[ Time : 0.032s | 15 Queries | GZIP : Off ]

cron