img image001 image001 image001 image001 image001 image001 image001 image001 image001 image001 image001 image001 image001 image001 image001

Planets Sun Sun Sun
Статистика раздачи
Автор: PriZraK | Размер: 4.47 ГБ | Добавлен: 30 окт 2016
Раздают: 2    Качают: 3
Скачать торрент
Скачать торрент
Описание торрента

СообщениеДобавлено: 30 окт 2016 

NBA 2016-2017 / RS / 28.10.2016 / Cleveland Cavaliers @ Toronto Raptors

Год выпуска: 28.10.2016
Вид спорта: Баскетбол
Комментарий: Профессиональный
Язык комментариев: Русский (Владимир Спивак)
Описание: NBA 2016-2017 / RS / 28.10.2016 / Cleveland Cavaliers @ Toronto Raptors.
Автор рипа: sanchez2011
Качество: WEB-DLRip
Формат: MKV
Видео кодек: H.264
Аудио кодек: AC3
Видео: MPEG4 Video (H264) 1920x1080 (16:9) 25fps 4500kbps
Аудио: AC-3 44100Hz stereo 128kbps
02:14:54
[align=center]Cleveland Cavaliers 94 - 91 Toronto Raptors[/align]
GeneralUnique ID : 224751981462071197394645960212726407571 (0xA915A838BDFEC609491E09F7A29FE193)Complete name : W:раздачиNBA 2016-2017. RS 28.10.2016. Cleveland Cavaliers @ Toronto Raptors.mkvFormat : MatroskaFormat version : Version 2File size : 4.47 GiBDuration : 2h 14mnOverall bit rate : 4 746 KbpsWriting application : Lavf54.63.104Writing library : Lavf54.63.104 / Lavf54.63.104
VideoID : 1Format : AVCFormat/Info : Advanced Video CodecFormat profile : High@L4.1Format settings, CABAC : YesFormat settings, ReFrames : 4 framesFormat settings, GOP : M=2, N=15Codec ID : V_MPEG4/ISO/AVCDuration : 2h 14mnBit rate : 4 523 KbpsWidth : 1 920 pixelsHeight : 1 080 pixelsDisplay aspect ratio : 16:9Frame rate mode : ConstantFrame rate : 25.000 fpsColor space : YUVChroma subsampling : 4:2:0Bit depth : 8 bitsScan type : ProgressiveBits/(Pixel*Frame) : 0.087Stream size : 4.26 GiB (95%)Default : NoForced : NoColor range : LimitedColor primaries : BT.709Transfer characteristics : BT.709Matrix coefficients : BT.709
AudioID : 2Format : AC-3Format/Info : Audio Coding 3Mode extension : CM (complete main)Format settings, Endianness : BigCodec ID : A_AC3Duration : 2h 14mnBit rate mode : ConstantBit rate : 128 KbpsChannel(s) : 2 channelsChannel positions : Front: L RSampling rate : 44.1 KHzFrame rate : 28.711 fps (1536 spf)Compression mode : LossyStream size : 124 MiB (3%)Default : YesForced : No



   Похожие торренты   Торрент   Размер 
В этой теме нет новых непрочитанных сообщений. Баскетбол. NBA 13/14. RS: Toronto Raptors @ Cleveland Cavaliers [25.02] (2014) WEB-DL 720p

5 | 2

2.27 ГБ

В этой теме нет новых непрочитанных сообщений. Баскетбол. NBA 13/14. RS: Cleveland Cavaliers @ Toronto Raptors [21.02] (2014) WEB-DL 720p | 60 fps

14 | 15

3.15 ГБ

В этой теме нет новых непрочитанных сообщений. Баскетбол. NBA 14/15. RS: Cleveland Cavaliers @ Toronto Raptors [04.03] (2015) HDTVRip 720p | 50 fps

22 | 3

3.04 ГБ

В этой теме нет новых непрочитанных сообщений. Баскетбол. NBA 2016-2017. RS: New York Knicks @ Cleveland Cavaliers [04.11] (2016) HDTV 1080i

8 | 6

7.65 ГБ

В этой теме нет новых непрочитанных сообщений. Баскетбол. NBA 2016-2017. RS: New York Knicks @ Cleveland Cavaliers [25.10] (2016) HDTV 1080i

1 | 0

7.24 ГБ

В этой теме нет новых непрочитанных сообщений. Баскетбол. NBA 2015-2016. RS: Los Angeles Lakers @ Cleveland Cavaliers [10.02] (2016) HDTV 1080i (RU-ENG)

42 | 4

6.52 ГБ

В этой теме нет новых непрочитанных сообщений. Баскетбол. NBA Playoffs 2016. The Finals. Game 1. Cleveland Cavaliers @ Golden State Warriors [02.06] (2016) HDTV 1080i

0 | 0

8.14 ГБ




Вы не можете начинать темы
Вы не можете отвечать на сообщения
Вы не можете редактировать свои сообщения
Вы не можете удалять свои сообщения
Вы не можете добавлять вложения

Перейти:  
Для Мосгорсуда, Роскомнадзора и рекламодателей: mosgorsud-torrent[собачка]yandex.ru
 Вход
ppkBB3cker v.2 © 2008-2014 @ PPK
[ Time : 0.066s | 15 Queries | GZIP : Off ]

Торрент трекер RUTOR.IN, Не можете зайти на rutor.org? Какой новый адрес рутор? Какое зеркало рутор? Не работает rutor.org и зеркала? Тогда наш торрент специально для вас. Rutor.in неофициальное зеркало rutor. В случае если у Вас заблокирован rutor или вдруг Вы не можете на него зайти, то Вы без труда сможете скачать бесплатно и без рекламы последние новинки кино, игр, сериалов и прочего у нас, на Rutor.in. Не нужно использовать прокси, чтобы зайти на рутор, достаточно воспользоваться нашим ресурсом. Все новые фильмы, игры, сериалы, книги и музыка за 2013 и 2014 годы через торрент бесплатно. Скачивайте фильмы в хорошем качестве, игры для пк, xbox, playstation без регистрации. У нас вы найдете новые Зарубежные сериалы и Русские сериалы 2013, 2014, 2015 годов. Оставайтесь с нами, качайте любимые фильмы, игры, сериалы, книги и музыку.