img image001 image001 image001 image001 image001 image001 image001 image001 image001 image001 image001 image001 image001 image001 image001

Planets Sun Sun Sun
Статистика раздачи
Автор: Nickolas3434 | Размер: 7.6 ГБ | Добавлен: 01 дек 2016
Раздают: 30    Качают: 5
Скачать торрент
Скачать торрент
Описание торрента

СообщениеДобавлено: 01 дек 2016 

Магнус / Magnus

Страна: Норвегия
Жанр: Документальный
Год выпуска: 2016
Продолжительность: 01:15:00
Перевод: Одноголосый закадровый
Cубтитры: нет
Оригинальная аудиодорожка: нет
Режиссер: Бенджамин Ри / Benjamin Ree
В ролях: Магнус Карлсен
Гарри Каспаров
Вишванатан Ананд
Описание: Документальный портрет шахматиста номер один
2013 год. В решающем поединке на чемпионате мира по шахматам Вишванатан Ананд встречается с норвежским вундеркиндом Магнусом Карлсеном – спортивный улыбчивый юноша, почти не похожий на одержимого шахматной лихорадкой безумца, еще не достиг 23-х лет (звание чемпиона станет ему подарком на день рождения), но уже не знает себе равных. А вот он же в 1994-м – голопузый и беззубый ангелоподобный блондин отдыхает с родителями на фьордах. Заметив, что сына не оторвать от Lego (кроха отдавал игрушке долгие часы), отец подсунул Магнусу шахматы – и не прогадал. Так началась история великого увлечения.
Добротная хроника жизни парня, которого уже в 14 лет называли магом. С участием нашего соотечественника и большого поклонника игры Карлсена Гарри Каспарова – когда Time причислил норвежца к титанам и включил в число самых влиятельных людей в мире, именно Каспаров представил его читателям.
Сэмпл: http://sendfile.su/1283618
Качество видео: HDRip
Формат видео: MP4
Видео: 1920x1080 (16:9), 25 fps, AVC (x264) High@L4.0, 14.4 Mbps avg, 0.277 bit/pixel
Аудио: 44.1 KHz, AAC, 2/0 (L,R) ch, 128 Kbps, CBR
GeneralComplete name : Magnus (2016).1080.mp4Format : MPEG-4Format profile : Base Media / Version 2Codec ID : mp42 (mp41/mp42/isom)File size : 7.60 GiBDuration : 1h 15mnOverall bit rate mode : VariableOverall bit rate : 14.5 MbpsMovie name : Untitled Project 9224Movie_More : This video is about Untitled Project 9224Performer : Christina UtesovaEncoded date : UTC 2016-10-08 16:05:07Tagged date : UTC 2016-10-08 16:53:44
VideoID : 2Format : AVCFormat/Info : Advanced Video CodecFormat profile : High@L4Format settings, CABAC : YesFormat settings, ReFrames : 2 framesFormat settings, GOP : M=2, N=30Codec ID : avc1Codec ID/Info : Advanced Video CodingDuration : 1h 15mnBit rate mode : VariableBit rate : 14.4 MbpsMaximum bit rate : 768 KbpsWidth : 1 920 pixelsHeight : 1 080 pixelsDisplay aspect ratio : 16:9Frame rate mode : ConstantFrame rate : 25.000 fpsColor space : YUVChroma subsampling : 4:2:0Bit depth : 8 bitsScan type : ProgressiveBits/(Pixel*Frame) : 0.277Stream size : 7.53 GiB (99%)Title : Core Media VideoEncoded date : UTC 2016-10-08 16:05:07Tagged date : UTC 2016-10-08 16:53:44Color range : LimitedColor primaries : BT.709Transfer characteristics : BT.709Matrix coefficients : BT.709
AudioID : 1Format : AACFormat/Info : Advanced Audio CodecFormat profile : LCCodec ID : 40Duration : 1h 15mnSource duration : 1h 15mnBit rate mode : ConstantBit rate : 128 KbpsChannel(s) : 2 channelsChannel positions : Front: L RSampling rate : 44.1 KHzFrame rate : 43.066 fps (1024 spf)Compression mode : LossyStream size : 66.0 MiB (1%)Source stream size : 66.0 MiB (1%)Title : Core Media AudioLanguage : RussianEncoded date : UTC 2016-10-08 16:05:07Tagged date : UTC 2016-10-08 16:53:44



   Похожие торренты   Торрент   Размер 
В этой теме нет новых непрочитанных сообщений. Шахматы. Первенство мира по шахматам 2016. 10-я партия [25.11] (2016) SATRip

21 | 8

3.41 ГБ

В этой теме нет новых непрочитанных сообщений. Magnus Karlsson's Free Fall - Magnus Karlsson's Free Fall (2013) MP3

1 | 2

134.9 МБ

В этой теме нет новых непрочитанных сообщений. Сергей Ткачев – Шахматы богов. Башня (2016) MP3

39 | 0

859.6 МБ

В этой теме нет новых непрочитанных сообщений. Magnus - Render One EP (2014) MP3

17 | 4

116.22 МБ

В этой теме нет новых непрочитанных сообщений. Magnus - Signal Strength (2011) MP3

1 | 2

211.4 МБ

В этой теме нет новых непрочитанных сообщений. Magnus - Singles And EP's Collection (2009-2014) MP3

5 | 2

310.35 МБ

В этой теме нет новых непрочитанных сообщений. Umbra et Imago - Opus Magnus (2010) MP3

1 | 1

130.16 МБ




Вы не можете начинать темы
Вы не можете отвечать на сообщения
Вы не можете редактировать свои сообщения
Вы не можете удалять свои сообщения
Вы не можете добавлять вложения

Перейти:  
Для Мосгорсуда, Роскомнадзора и рекламодателей: mosgorsud-torrent[собачка]yandex.ru
 Вход
ppkBB3cker v.2 © 2008-2014 @ PPK
[ Time : 0.655s | 15 Queries | GZIP : On ]

Торрент трекер RUTOR.IN, Не можете зайти на rutor.org? Какой новый адрес рутор? Какое зеркало рутор? Не работает rutor.org и зеркала? Тогда наш торрент специально для вас. Rutor.in неофициальное зеркало rutor. В случае если у Вас заблокирован rutor или вдруг Вы не можете на него зайти, то Вы без труда сможете скачать бесплатно и без рекламы последние новинки кино, игр, сериалов и прочего у нас, на Rutor.in. Не нужно использовать прокси, чтобы зайти на рутор, достаточно воспользоваться нашим ресурсом. Все новые фильмы, игры, сериалы, книги и музыка за 2013 и 2014 годы через торрент бесплатно. Скачивайте фильмы в хорошем качестве, игры для пк, xbox, playstation без регистрации. У нас вы найдете новые Зарубежные сериалы и Русские сериалы 2013, 2014, 2015 годов. Оставайтесь с нами, качайте любимые фильмы, игры, сериалы, книги и музыку.